Loading...
Error

10 лет спустя / 10 Years (Джеми Линден) [2011 г., драма, мелодрама, комедия, BDRip-AVC] Dub

Статистика раздачи
Размер:  1,93 GB   |    Зарегистрирован:  3 года 8 месяцев   |    Скачан:  2 раза

Полного источника не было: 2 года 3 месяца

Сидов:  0  |  0 KB/s  ]   Личеров:  0  |  0 KB/s  ]

* - сиды/пиры с внешних источников

   
 
Автор Сообщение

Mahmud_1 Пол:Муж

22-Мар-2013 11:39

10 лет спустя / 10 Years


Год выпуска: 2011
Жанр: драма, мелодрама, комедия
Страна: США
Режиссер: Джеми Линден
В ролях: Ченнинг Татум, Дженна Деван, Джастин Лонг, Макс Мингелла, Оскар Айзек, Крис Прэтт, Эри Грейнор, Дэниэл Скотт Лампкин мл., Лили Лампкин, Скотт Портер
Сюжет фильма:
10 лет спустя бывшие одноклассники собираются, чтобы оторваться по полной и поставить на уши весь город. Море выпивки, веселья и воспоминаний, но теперь все по-взрослому! Красавчик Джейк прибыл на вечеринку вместе с ослепительной девушкой, они — идеальная пара, и они счастливы в любви. Но этой ночью на глаза Джейку попадается его первая любовь, прошлое притягивает его и стучится в память с новой силой. Сможет ли он сделать правильный выбор? И правда ли, что у любви нет срока давности?

  • Мировая премьера: 14 сентября 2012
  • Российская премьера: 13 декабря 2012, «Кинопром»


Качество видео: BDRip-AVC

Продолжительность: 01:40:31
Формат: MKV
Видео: MPEG-4 AVC, 1024x576, 2299 kbps
Аудио: русский, дублированный, AC3 5.1, 448 kbps

Код:

Общее
Уникальный идентификатор : 239693268444497132978536896966202033202 (0xB4533E8B87346FFABB734B836EFD0432)
Полное имя : D:110.let.spustja.2012.x264.BDRip.(AVC).ExKinoRay.mkv
Формат : Matroska
Версия формата : Version 2
Размер файла : 1,93 Гбайт
Продолжительность : 1 ч. 40 м.
Общий поток : 2748 Кбит/сек
Название фильма : 10.let.spustja.2012.x264.BDRip.(AVC).ExKinoRay
Дата кодирования : UTC 2013-01-31 15:04:35
Программа кодирования : mkvmerge v4.0.0 ('The Stars were mine') сборка от Jun 6 2010 16:18:42
Библиотека кодирования : libebml v1.0.0 + libmatroska v1.0.0

Видео
Идентификатор : 1
Формат : AVC
Формат/Информация : Advanced Video Codec
Профиль формата : High@L4.1
Параметр CABAC формата : Да
Параметр ReFrames формата : 8 кадров
Идентификатор кодека : V_MPEG4/ISO/AVC
Продолжительность : 1 ч. 40 м.
Битрейт : 2299 Кбит/сек
Ширина : 1024 пикселя
Высота : 576 пикселей
Соотношение сторон : 16:9
Частота кадров : 24,000 кадра/сек
Цветовое пространство : YUV
Субдискретизация насыщенности : 4:2:0
Битовая глубина : 8 бит
Тип развёртки : Прогрессивная
Бит/(Пиксели*Кадры) : 0.162
Размер потока : 1,58 Гбайт (82%)
Заголовок : Rip by Enigma-Vladislav71
Библиотека кодирования : x264 core 129 r2230 1cffe9f
Настройки программы : cabac=1 / ref=8 / deblock=1:-2:-2 / analyse=0x3:0x133 / me=umh / subme=11 / psy=1 / psy_rd=1.00:0.00 / mixed_ref=1 / me_range=48 / chroma_me=1 / trellis=2 / 8x8dct=1 / cqm=0 / deadzone=21,11 / fast_pskip=0 / chroma_qp_offset=-2 / threads=3 / lookahead_threads=1 / sliced_threads=0 / nr=0 / decimate=0 / interlaced=0 / bluray_compat=0 / constrained_intra=0 / bframes=8 / b_pyramid=2 / b_adapt=2 / b_bias=0 / direct=3 / weightb=1 / open_gop=0 / weightp=2 / keyint=240 / keyint_min=23 / scenecut=40 / intra_refresh=0 / rc_lookahead=40 / rc=2pass / mbtree=1 / bitrate=2299 / ratetol=1.0 / qcomp=0.60 / qpmin=10 / qpmax=51 / qpstep=4 / cplxblur=20.0 / qblur=0.5 / ip_ratio=1.40 / aq=2:1.00
Язык : English

Аудио
Идентификатор : 2
Формат : AC-3
Формат/Информация : Audio Coding 3
Расширение режима : CM (complete main)
Идентификатор кодека : A_AC3
Продолжительность : 1 ч. 40 м.
Вид битрейта : Постоянный
Битрейт : 448 Кбит/сек
Каналы : 6 каналов
Расположение каналов : Front: L C R, Side: L R, LFE
Частота : 48,0 КГц
Битовая глубина : 16 бит
Метод сжатия : С потерями
Размер потока : 322 Мбайт (16%)
Язык : Russian

Меню
00:00:00.000 : en:Chapter 01
00:09:26.625 : en:Chapter 02
00:19:08.291 : en:Chapter 03
00:28:43.083 : en:Chapter 04
00:38:03.125 : en:Chapter 05
00:48:17.208 : en:Chapter 06
00:57:14.041 : en:Chapter 07
01:07:13.791 : en:Chapter 08
01:16:22.041 : en:Chapter 09
01:26:20.083 : en:Chapter 10
01:35:56.208 : en:Chapter 11
Семпл: http://multi-up.com/825199

picpicpicpic
Для увеличения картинки щелкните мышкой по превью

Этот торрент недоступен для скачивания без регистрации, однако доступен по публичной magnet-ссылке (источники с публичных трекеров). Перед использованием ссылки прочтите, пожалуйста Пользовательское соглашение, а также как можно дольше оставайтесь на раздаче! Для того, чтобы скачать сам торрент-файл (который видит больше источников), а также для того, чтобы поблагодарить релизера, вам необходимо зарегистрироваться. Если регистрироваться лень - вы можете также попробовать скачать релиз по нашим партнерским ссылкам ниже.

[underverse.su].t25289.torrent
Трекер: Зарегистрирован   [ 22.03.2013 11:39 ]  

Статус: проверено (by Паукан at 22.03.2013 12:00)
Поблагодарили: 1 человек
Тип торрента: публичный - доступные источники с открытых трекеров: 
Размер: 1,93 GB (занимает 0,44 DVDR, для записи нужно 1 болванка DVDR/RW)
 
 
Похожие темы
Форум Тема Автор Торрент Отв. Посл. сооб.
Зарубежное кино [DVDRip, Low-Res HDRip, и т.д.] 10 лет спустя / 10 Years (Джеми Линден) [2012 г., драма, мелодрама, комедия, HDRip] Dub 90ytr90
42 | 0

0 | 1145

24

23.01.2013 20:15

Зарубежное кино [DVDRip, Low-Res HDRip, и т.д.] 10 лет спустя / 10 Years (Джеми Линден) [2011 г., драма, мелодрама, комедия, HDRip] Dub garry
10 | 0

0 | 1297

8

27.10.2013 09:33



Последний раз редактировалось: Mahmud_1 (22.03.2013 11:52), всего редактировалось 1 раз

Паукан Пол:Муж

22-Мар-2013 11:46

укажите пожалуйста качество видео

Яндекс.Метрика powered by Sphinx


В Н И М А Н И Е
Сайт не распространяет и не хранит электронные версии произведений, а лишь бесплатно и без коммерческой выгоды (не требуя взамен платы,
SMS и т.д.) предоставляет доступ к создаваемому пользователями каталогу ссылок на торрент-файлы, которые содержат только списки хеш-сумм.
Убедительная просьба с жалобами обращаться напрямую к пользователю, разместившему торрент файл.

Вверх