Loading...
Error

Метро (Антон Мегердичев) [2012 г., триллер, драма, BDRip] HQ Underverse

Статистика раздачи
Размер:  2,17 GB   |    Зарегистрирован:  3 года 8 месяцев   |    Скачан:  166 раз

Полного источника не было: 10 часов

Сидов:  0  |  0 KB/s  ]   Личеров:  0  |  0 KB/s  ]

* - сиды/пиры с внешних источников

   
 
Автор Сообщение

HQ Underverse 

22-Мар-2013 08:00

Метро


Год выпуска: 2012
Жанр: триллер, драма
Страна: Россия
Режиссер: Антон Мегердичев
В ролях: Сергей Пускепалис, Анатолий Белый, Светлана Ходченкова, Анфиса Вистингаузен, Алексей Бардуков, Катерина Шпица, Елена Панова, Станислав Дужников, Кирилл Плетнёв, Иван Макаревич
Сюжет фильма:
Широко развернувшееся в центре Москвы строительство новых зданий приводит к тому, что в одном из тоннелей метро между двумя станциями возникает трещина. Никто себе и представить не мог, что в результате нарушения герметичности перекрытия в тоннель хлынет вода из Москва-реки, и сотни пассажиров поезда окажутся во власти надвигающегося потопа. Бешеный поток воды грозит не только обрушением тоннелей метро, но и разрушением всего города.

Среди попавших в беду людей — врач городской больницы Андрей Гарин и его дочь Ксюша. Гарин сражается с катастрофой, пытаясь спасти оставшихся в живых пассажиров, в том числе и …любовника своей жены. Гарину придется побороть обиду, гнев и страх. Он должен выжить, чтобы вернуть свою любовь, семью… свою прежнюю счастливую жизнь.

  • Мировая премьера: 21 февраля 2013
  • Российская премьера: 21 февраля 2013, «Наше Кино»


Качество видео: BDRip

Продолжительность: 02:11:44
Формат: avi
Видео: XviD, 720x304, 1960 kbps
Аудио: русский, оригинал, AC3 5.1, 384 kbps

Код:

General
Complete name                    : G:\Метро\Metro.2013.BDRip.XviD.AC3.Rus.O.HQ.Underverse.avi
Format                           : AVI
Format/Info                      : Audio Video Interleave
Format profile                   : OpenDML
File size                        : 2.17 GiB
Duration                         : 2h 11mn
Overall bit rate                 : 2 357 Kbps
Writing application              : VirtualDubMod 1.5.10.2 (build 2540/release)
Writing library                  : VirtualDubMod build 2540/release

Video
ID                               : 0
Format                           : MPEG-4 Visual
Format profile                   : Streaming Video@L1
Format settings, BVOP            : Yes
Format settings, QPel            : No
Format settings, GMC             : No warppoints
Format settings, Matrix          : Custom
Muxing mode                      : Packed bitstream
Codec ID                         : XVID
Codec ID/Hint                    : XviD
Duration                         : 2h 11mn
Bit rate                         : 1 961 Kbps
Width                            : 720 pixels
Height                           : 304 pixels
Display aspect ratio             : 2.35
Frame rate                       : 23.976 fps
Resolution                       : 24 bits
Colorimetry                      : 4:2:0
Scan type                        : Progressive
Bits/(Pixel*Frame)               : 0.374
Stream size                      : 1.80 GiB (83%)
Writing library                  : XviD 64

Audio
ID                               : 1
Format                           : AC-3
Format/Info                      : Audio Coding 3
Codec ID                         : 2000
Duration                         : 2h 11mn
Bit rate mode                    : Constant
Bit rate                         : 384 Kbps
Channel(s)                       : 6 channels
Channel positions                : Front: L C R, Surround: L R, LFE
Sampling rate                    : 48.0 KHz
Stream size                      : 362 MiB (16%)
Alignment                        : Split accross interleaves
Interleave, duration             : 42 ms (1.00 video frame)
Interleave, preload duration     : 500 ms

picpicpic
Для увеличения картинки щелкните мышкой по превью

Этот торрент недоступен для скачивания без регистрации, однако доступен по публичной magnet-ссылке (источники с публичных трекеров). Перед использованием ссылки прочтите, пожалуйста Пользовательское соглашение, а также как можно дольше оставайтесь на раздаче! Для того, чтобы скачать сам торрент-файл (который видит больше источников), а также для того, чтобы поблагодарить релизера, вам необходимо зарегистрироваться. Если регистрироваться лень - вы можете также попробовать скачать релиз по нашим партнерским ссылкам ниже.

[underverse.su].t25280.torrent
Трекер: Зарегистрирован   [ 22.03.2013 08:00 ]  

Статус: проверено (by HQ Underverse at 22.03.2013 08:00)
Поблагодарили: 15 человек
Тип торрента: публичный - доступные источники с открытых трекеров: 
Размер: 2,17 GB (занимает 1/2 DVDR, для записи нужно 1 болванка DVDR/RW)
 
 
Похожие темы
Форум Тема Автор Торрент Отв. Посл. сооб.
Наше кино [DVDRip, Low-Res HDRip, и т.д.] Метро (Антон Мегердичев) [2012 г., триллер, драма, BDRip] 90ytr90
1 | 0

16 | 1996

184

17.03.2013 08:43

Наше кино [DVDRip, Low-Res HDRip, и т.д.] Метро (Антон Мегердичев) [2012 г., триллер, драма, BDRip] 90ytr90
8 | 0

4 | 2153

294

07.04.2013 09:19

Наше кино [DVD / HDDVD / BD / Remux] Метро (Антон Мегердичев) [2012 г., триллер, драма, Blu-ray 1080p] 90ytr90
3 | 0

0 | 859

15

07.03.2013 19:33

Наше кино [HDDVDRip / BDRip / WEB-DL / HDTV 1080/720р] Метро (Антон Мегердичев) [2012 г., триллер, драма, BDRip 720p] 90ytr90
3 | 0

0 | 900

69

08.03.2013 10:47

Наше кино [HDDVDRip / BDRip / WEB-DL / HDTV 1080/720р] Метро (Антон Мегердичев) [2012 г., триллер, драма, BDRip 1080p] 90ytr90
0 | 0

4 | 993

49

25.05.2013 09:23


Яндекс.Метрика powered by Sphinx


В Н И М А Н И Е
Сайт не распространяет и не хранит электронные версии произведений, а лишь бесплатно и без коммерческой выгоды (не требуя взамен платы,
SMS и т.д.) предоставляет доступ к создаваемому пользователями каталогу ссылок на торрент-файлы, которые содержат только списки хеш-сумм.
Убедительная просьба с жалобами обращаться напрямую к пользователю, разместившему торрент файл.

Вверх