Loading...
Error

72 метра [телеверсия] (Владимир Хотиненко) [2004 г., боевик, триллер, драма, SatRip]

Статистика раздачи
Размер:  1,47 GB   |    Зарегистрирован:  3 года 8 месяцев   |    Скачан:  14 раз

Полного источника не было: 1 месяц 16 дней

Сидов:  0  |  0 KB/s  ]   Личеров:  0  |  0 KB/s  ]

* - сиды/пиры с внешних источников

   
 
Автор Сообщение

garry Пол:Муж

21-Мар-2013 22:12

72 метра [телеверсия]


Год выпуска: 2004
Жанр: боевик, триллер, драма
Страна: Россия
Режиссер: Владимир Хотиненко
В ролях: Сергей Маковецкий, Марат Башаров, Андрей Краско, Дмитрий Ульянов, Чулпан Хаматова, Станислав Никольский, Сергей Гармаш, Владислав Галкин, Игорь Ливанов, Артем Михалков
Сюжет фильма:
Рассказ «72 метра», повествующий о гибели подводной лодки, был написан Александром Покровским задолго до того, как произошла трагедия «Курска». Это не пророчество и не совпадение, а, к сожалению, логика вещей.

Самые суперсовременные самолеты падали и будут время от времени падать. Самые надежные корабли и подводные лодки тонули и, увы, еще будут тонуть. Но речь не об этом…

Бывает так, что в критической ситуации люди, считавшиеся слабыми, становятся сильными, а те, кто казался твёрдыми, как скала, смертельно слабеют. Но все вместе они — герои. Эта история не о том, что надежда умирает последней, а о том, что она не умирает никогда…

  • Мировая премьера: 2 сентября 2005
  • Российская премьера: 12 февраля 2004, «Гемини Киномир»

Качество видео: SatRip

Продолжительность: 00:51:42 + 00:46:18 + 00:46:51
Формат: AVI
Видео: XviD, 672x368, 1250 kbps
Аудио: русский, оригинал, AC3 2.0, 192 kbps

Код:

Общее
 Полное имя : ...72 метра-телеверсия_1.46\72 метра - 1 часть.avi
 Формат : AVI
 Формат/Информация : Audio Video Interleave
 Размер файла : 537 Мбайт
 Продолжительность : 51 м.
 Общий поток : 1452 Кбит/сек
 Программа кодирования : VirtualDubMod 1.5.10.3 | www.virtualdub-fr.org || (build 2550/release)
 Библиотека кодирования : VirtualDubMod build 2550/release

Видео
 Идентификатор : 0
 Формат : MPEG-4 Visual
 Профиль формата : Advanced Simple@L5
 Параметр BVOP формата : 1
 Параметр QPel формата : Нет
 Параметр GMC формата : Без точки перехода
 Параметр матрицы формата : Выборочная
 Идентификатор кодека : XVID
 Идентификатор кодека/Подсказка : XviD
 Продолжительность : 51 м.
 Битрейт : 1250 Кбит/сек
 Ширина : 672 пикс.
 Высота : 368 пикс.
 Соотношение сторон : 16:9
 Частота кадров : 25,000 кадр/сек
 Цветовое пространство : YUV
 Подвыборка цветности : 4:2:0
 Битовая глубина : 8 бит
 Тип развёртки : Прогрессивная
 Метод сжатия : С потерями
 Бит/(Пиксели*Кадры) : 0.202
 Размер потока : 462 Мбайт (86%)
 Библиотека кодирования : XviD 61

Аудио
 Идентификатор : 1
 Формат : AC-3
 Формат/Информация : Audio Coding 3
 Расширение режима : CM (complete main)
 Идентификатор кодека : 2000
 Продолжительность : 51 м.
 Вид битрейта : Постоянный
 Битрейт : 192 Кбит/сек
 Каналы : 2 канала
 Расположение каналов : Front: L R
 Частота : 48,0 КГц
 Битовая глубина : 16 бит
 Метод сжатия : С потерями
 Задержка видео : 24 мс.
 Размер потока : 71,0 Мбайт (13%)
 Выравнивание : Разделение по промежуткам
 Продолжительность промежутка : 40 мс. (1,00 видеокадр)
 Время предзагрузки промежутка : 500 ms

Общее
 Полное имя : ...72 метра-телеверсия_1.46\72 метра - 2 часть.avi
 Формат : AVI
 Формат/Информация : Audio Video Interleave
 Размер файла : 481 Мбайт
 Продолжительность : 46 м.
 Общий поток : 1452 Кбит/сек
 Программа кодирования : VirtualDubMod 1.5.10.3 | www.virtualdub-fr.org || (build 2550/release)
 Библиотека кодирования : VirtualDubMod build 2550/release

Видео
 Идентификатор : 0
 Формат : MPEG-4 Visual
 Профиль формата : Advanced Simple@L5
 Параметр BVOP формата : 1
 Параметр QPel формата : Нет
 Параметр GMC формата : Без точки перехода
 Параметр матрицы формата : Выборочная
 Идентификатор кодека : XVID
 Идентификатор кодека/Подсказка : XviD
 Продолжительность : 46 м.
 Битрейт : 1250 Кбит/сек
 Ширина : 672 пикс.
 Высота : 368 пикс.
 Соотношение сторон : 16:9
 Частота кадров : 25,000 кадр/сек
 Цветовое пространство : YUV
 Подвыборка цветности : 4:2:0
 Битовая глубина : 8 бит
 Тип развёртки : Прогрессивная
 Метод сжатия : С потерями
 Бит/(Пиксели*Кадры) : 0.202
 Размер потока : 414 Мбайт (86%)
 Библиотека кодирования : XviD 61

Аудио
 Идентификатор : 1
 Формат : AC-3
 Формат/Информация : Audio Coding 3
 Расширение режима : CM (complete main)
 Идентификатор кодека : 2000
 Продолжительность : 46 м.
 Вид битрейта : Постоянный
 Битрейт : 192 Кбит/сек
 Каналы : 2 канала
 Расположение каналов : Front: L R
 Частота : 48,0 КГц
 Битовая глубина : 16 бит
 Метод сжатия : С потерями
 Задержка видео : 24 мс.
 Размер потока : 63,6 Мбайт (13%)
 Выравнивание : Разделение по промежуткам
 Продолжительность промежутка : 40 мс. (1,00 видеокадр)
 Время предзагрузки промежутка : 500 ms

Общее
 Полное имя : ...72 метра-телеверсия_1.46\72 метра - 3 часть.avi
 Формат : AVI
 Формат/Информация : Audio Video Interleave
 Размер файла : 486 Мбайт
 Продолжительность : 46 м.
 Общий поток : 1452 Кбит/сек
 Программа кодирования : VirtualDubMod 1.5.10.3 | www.virtualdub-fr.org || (build 2550/release)
 Библиотека кодирования : VirtualDubMod build 2550/release

Видео
 Идентификатор : 0
 Формат : MPEG-4 Visual
 Профиль формата : Advanced Simple@L5
 Параметр BVOP формата : 1
 Параметр QPel формата : Нет
 Параметр GMC формата : Без точки перехода
 Параметр матрицы формата : Выборочная
 Идентификатор кодека : XVID
 Идентификатор кодека/Подсказка : XviD
 Продолжительность : 46 м.
 Битрейт : 1250 Кбит/сек
 Ширина : 672 пикс.
 Высота : 368 пикс.
 Соотношение сторон : 16:9
 Частота кадров : 25,000 кадр/сек
 Цветовое пространство : YUV
 Подвыборка цветности : 4:2:0
 Битовая глубина : 8 бит
 Тип развёртки : Прогрессивная
 Метод сжатия : С потерями
 Бит/(Пиксели*Кадры) : 0.202
 Размер потока : 419 Мбайт (86%)
 Библиотека кодирования : XviD 61

Аудио
 Идентификатор : 1
 Формат : AC-3
 Формат/Информация : Audio Coding 3
 Расширение режима : CM (complete main)
 Идентификатор кодека : 2000
 Продолжительность : 46 м.
 Вид битрейта : Постоянный
 Битрейт : 192 Кбит/сек
 Каналы : 2 канала
 Расположение каналов : Front: L R
 Частота : 48,0 КГц
 Битовая глубина : 16 бит
 Метод сжатия : С потерями
 Задержка видео : 24 мс.
 Размер потока : 64,3 Мбайт (13%)
 Выравнивание : Разделение по промежуткам
 Продолжительность промежутка : 40 мс. (1,00 видеокадр)
 Время предзагрузки промежутка : 500 ms
Доп. информация: Существует, как минимум, две версии фильма: первая, вышедшая на DVD и вторая, которая обычно транслируется Первым каналом. Разница заключается лишь в том, что из первой версии вырезаны многие флешбеки.

picpicpicpic
Для увеличения картинки щелкните мышкой по превью

Этот торрент недоступен для скачивания без регистрации, однако доступен по публичной magnet-ссылке (источники с публичных трекеров). Перед использованием ссылки прочтите, пожалуйста Пользовательское соглашение, а также как можно дольше оставайтесь на раздаче! Для того, чтобы скачать сам торрент-файл (который видит больше источников), а также для того, чтобы поблагодарить релизера, вам необходимо зарегистрироваться. Если регистрироваться лень - вы можете также попробовать скачать релиз по нашим партнерским ссылкам ниже.

[underverse.su].t25269.torrent
Трекер: Зарегистрирован   [ 21.03.2013 22:12 ]  

Статус: проверено (by Паукан at 22.03.2013 05:29)
Поблагодарили: 1 человек
Тип торрента: публичный - доступные источники с открытых трекеров: 
Размер: 1,47 GB (занимает 0,34 DVDR, для записи нужно 1 болванка DVDR/RW)
 
 

Яндекс.Метрика powered by Sphinx


В Н И М А Н И Е
Сайт не распространяет и не хранит электронные версии произведений, а лишь бесплатно и без коммерческой выгоды (не требуя взамен платы,
SMS и т.д.) предоставляет доступ к создаваемому пользователями каталогу ссылок на торрент-файлы, которые содержат только списки хеш-сумм.
Убедительная просьба с жалобами обращаться напрямую к пользователю, разместившему торрент файл.

Вверх