Loading...
Error

Лоуренс Аравийский / Lawrence of Arabia (Дэвид Лин) [1962 г., драма, приключения, военный, биография, история, BDRip-AVC] MVO + Original

Статистика раздачи
Размер:  7,89 GB   |    Зарегистрирован:  3 года 8 месяцев   |    Скачан:  9 раз

Полного источника не было: 11 часов

Сидов:  0  |  0 KB/s  ]   Личеров:  0  |  0 KB/s  ]

* - сиды/пиры с внешних источников

   
 
Автор Сообщение

garry Пол:Муж

21-Мар-2013 22:04

Лоуренс Аравийский / Lawrence of Arabia


Год выпуска: 1962
Жанр: драма, приключения, военный, биография, история
Страна: Великобритания , США
Режиссер: Дэвид Лин
В ролях: Питер О’Тул, Алек Гиннесс, Энтони Куинн, Джек Хоукинс, Омар Шариф, Хосе Феррер, Энтони Куэйл, Клод Рейнс, Артур Кеннеди, Дональд Вулфит
Сюжет фильма:
Фильм рассказывает о легендарном герое Первой мировой войны — английском разведчике Т. Э. Лоуренсе, действовавшем среди арабских племен и возглавившем их в походе против турок.

  • Мировая премьера: 10 декабря 1962

/
Качество видео: BDRip-AVC

Продолжительность: 03:47:00
Формат: MKV
Видео: x264, 1052x480, 4079 kbps
Аудио #1: русский, многоголосый закадровый [профессиональный, Супербит], AC3 5.1, 448 kbps
Аудио #2: английский, оригинал, AC3 5.1, 448 kbps
Субтитры #1: тип: вшитые отключаемые, русский, формат: SRT
Субтитры #2: тип: вшитые отключаемые, английский, формат: SRT
Субтитры #3: тип: вшитые отключаемые, английский SDH, формат: SRT

Код:

General
 Unique ID                                : 253758408369082359616354199334402449300 (0xBEE8177BBC52E402A3D61ADAF7BCDF94)
 Complete name                            : D:\VIDEO\Lawrence.of.Arabia.1962.BDRip-AVC.Rus.Eng.mkv
 Format                                   : Matroska
 Format version                           : Version 2
 File size                                : 7.89 GiB
 Duration                                 : 3h 47mn
 Overall bit rate                         : 4 978 Kbps
 Movie name                               : Lawrence of Arabia 1962
 Encoded date                             : UTC 2013-03-21 12:41:46
 Writing application                      : mkvmerge v5.8.0 ('No Sleep / Pillow') built on Sep  2 2012 15:37:04
 Writing library                          : libebml v1.2.3 + libmatroska v1.3.0
 Attachment                               : Yes

Video
 ID                                       : 1
 Format                                   : AVC
 Format/Info                              : Advanced Video Codec
 Format profile                           : High@L4.0
 Format settings, CABAC                   : Yes
 Format settings, ReFrames                : 11 frames
 Codec ID                                 : V_MPEG4/ISO/AVC
 Duration                                 : 3h 47mn
 Bit rate                                 : 3 983 Kbps
 Width                                    : 1 052 pixels
 Height                                   : 480 pixels
 Display aspect ratio                     : 2.2:1
 Frame rate mode                          : Constant
 Frame rate                               : 23.976 fps
 Color space                              : YUV
 Chroma subsampling                       : 4:2:0
 Bit depth                                : 8 bits
 Scan type                                : Progressive
 Bits/(Pixel*Frame)                       : 0.329
 Stream size                              : 6.31 GiB (80%)
 Title                                    : Lawrence of Arabia
 Writing library                          : x264 core 130 r2273kMod b3065e6
 Encoding settings                        : cabac=1 / ref=11 / deblock=1:-2:-2 / analyse=0x3:0x133 / me=umh / subme=11 / psy=1 / fade_compensate=0.00 / psy_rd=1.10:0.00 / mixed_ref=1 / me_range=64 / chroma_me=1 / trellis=2 / 8x8dct=1 / cqm=0 / deadzone=21,11 / fast_pskip=0 / chroma_qp_offset=-2 / threads=6 / lookahead_threads=1 / sliced_threads=0 / nr=0 / decimate=1 / interlaced=0 / bluray_compat=0 / constrained_intra=0 / bframes=11 / b_pyramid=2 / b_adapt=2 / b_bias=0 / direct=3 / weightb=1 / open_gop=0 / weightp=2 / keyint=240 / keyint_min=23 / scenecut=40 / intra_refresh=0 / rc_lookahead=60 / rc=crf / mbtree=0 / crf=17.7000 / qcomp=0.75 / qpmin=0 / qpmax=69 / qpstep=4 / vbv_maxrate=25000 / vbv_bufsize=31250 / crf_max=0.0 / nal_hrd=none / ip_ratio=1.40 / pb_ratio=1.20 / aq=2:0.80
 Language                                 : English
 Default                                  : Yes
 Forced                                   : No
 Matrix coefficients                      : BT.709

Audio #1
 ID                                       : 2
 Format                                   : AC-3
 Format/Info                              : Audio Coding 3
 Mode extension                           : CM (complete main)
 Format settings, Endianness              : Big
 Codec ID                                 : A_AC3
 Duration                                 : 3h 47mn
 Bit rate mode                            : Constant
 Bit rate                                 : 448 Kbps
 Channel(s)                               : 6 channels
 Channel positions                        : Front: L C R, Side: L R, LFE
 Sampling rate                            : 48.0 KHz
 Bit depth                                : 16 bits
 Compression mode                         : Lossy
 Stream size                              : 727 MiB (9%)
 Title                                    : Супербит
 Language                                 : Russian
 Default                                  : Yes
 Forced                                   : No

Audio #2
 ID                                       : 3
 Format                                   : AC-3
 Format/Info                              : Audio Coding 3
 Mode extension                           : CM (complete main)
 Format settings, Endianness              : Big
 Codec ID                                 : A_AC3
 Duration                                 : 3h 47mn
 Bit rate mode                            : Constant
 Bit rate                                 : 448 Kbps
 Channel(s)                               : 6 channels
 Channel positions                        : Front: L C R, Side: L R, LFE
 Sampling rate                            : 48.0 KHz
 Bit depth                                : 16 bits
 Compression mode                         : Lossy
 Stream size                              : 727 MiB (9%)
 Title                                    : Английский
 Language                                 : English
 Default                                  : No
 Forced                                   : No

Text #1
 ID                                       : 4
 Format                                   : UTF-8
 Codec ID                                 : S_TEXT/UTF8
 Codec ID/Info                            : UTF-8 Plain Text
 Title                                    : Русские
 Language                                 : Russian
 Default                                  : No
 Forced                                   : No

Text #2
 ID                                       : 5
 Format                                   : UTF-8
 Codec ID                                 : S_TEXT/UTF8
 Codec ID/Info                            : UTF-8 Plain Text
 Title                                    : Английские
 Language                                 : English
 Default                                  : No
 Forced                                   : No

Text #3
 ID                                       : 6
 Format                                   : UTF-8
 Codec ID                                 : S_TEXT/UTF8
 Codec ID/Info                            : UTF-8 Plain Text
 Title                                    : Английские - SDH
 Language                                 : English
 Default                                  : No
 Forced                                   : No

Menu
 00:00:00.000                             : en:Chapter 1
 00:00:04.003                             : en:Chapter 2
 00:00:59.057                             : en:Chapter 3
 00:02:44.163                             : en:Chapter 4
 00:04:40.279                             : en:Chapter 5
 ========
 03:32:17.725                             : en:Chapter 143
 03:36:49.995                             : en:Chapter 144
 03:39:13.138                             : en:Chapter 145
 03:42:33.340                             : en:Chapter 146
 03:43:35.402                             : en:Chapter 147
Семпл: http://multi-up.com/845335

Релиз группы:

picpicpicpic
Для увеличения картинки щелкните мышкой по превью

Этот торрент недоступен для скачивания без регистрации, однако доступен по публичной magnet-ссылке (источники с публичных трекеров). Перед использованием ссылки прочтите, пожалуйста Пользовательское соглашение, а также как можно дольше оставайтесь на раздаче! Для того, чтобы скачать сам торрент-файл (который видит больше источников), а также для того, чтобы поблагодарить релизера, вам необходимо зарегистрироваться. Если регистрироваться лень - вы можете также попробовать скачать релиз по нашим партнерским ссылкам ниже.

[underverse.su].t25268.torrent
Трекер: Зарегистрирован   [ 21.03.2013 22:04 ]  

Статус: проверено (by Паукан at 22.03.2013 05:28)
Поблагодарили: 1 человек
Тип торрента: публичный - доступные источники с открытых трекеров: 
Размер: 7,89 GB (занимает 1,8 DVDR, для записи нужно 2 болванки DVDR/RW)
 
 

Яндекс.Метрика powered by Sphinx


В Н И М А Н И Е
Сайт не распространяет и не хранит электронные версии произведений, а лишь бесплатно и без коммерческой выгоды (не требуя взамен платы,
SMS и т.д.) предоставляет доступ к создаваемому пользователями каталогу ссылок на торрент-файлы, которые содержат только списки хеш-сумм.
Убедительная просьба с жалобами обращаться напрямую к пользователю, разместившему торрент файл.

Вверх