Loading...
Error

Сайлент Хилл / Silent Hill (Кристоф Ганс) [2006 г., ужасы, приключения, BDRip] Dub(Rus,Ukr) + Sub(Rus,Eng) + Original HQ Underverse

Статистика раздачи
Размер:  2,17 GB   |    Зарегистрирован:  3 года 8 месяцев   |    Скачан:  17 раз

Полного источника не было: 7 месяцев

Сидов:  0  |  0 KB/s  ]   Личеров:  0  |  0 KB/s  ]

* - сиды/пиры с внешних источников

   
 
Автор Сообщение

HQ Underverse 

21-Мар-2013 21:49

Сайлент Хилл / Silent Hill


Год выпуска: 2006
Жанр: ужасы, приключения
Страна: Канада , Франция , Япония , США
Режиссер: Кристоф Ганс
В ролях: Рада Митчелл, Джоделль Ферланд, Лори Холден, Шон Бин, Дебора Кара Ангер, Ким Коутс, Таня Аллен, Элис Крайдж, Коллин Уильямс, Рон Гэбриел
Сюжет фильма:
Молодая мать, отчаявшись найти лекарство от таинственного заболевания своей дочери Шэрон, отказывается отдать ее в психиатрическую лечебницу. Вместе с Шэрон она отправляется в Сайлент Хилл, город, название которого ее дочь постоянно твердит во сне.

Несмотря на сопротивление мужа, Роуз убеждена, что найдет там ответы, в которых так нуждается. Но когда они подъезжают к заброшенному городу, на дороге появляется таинственная фигура, Роуз резко тормозит, и машина попадает в аварию… Придя в себя, она обнаруживает, что Шэрон исчезла…

В компании упрямой женщины-полицейской из городка неподалеку Роуз отправляется на поиски своего ребенка в Сайлент Хилл, место, непохожее ни на одно другое: город покрыт туманом, его населяют странные, проклятые создания, и время от времени он погружается во Мрак, который буквально меняет все, к чему прикасается…

В поисках дочери Роуз узнает об истории Сайлент Хилла, его пуританском прошлом, полном насилия, и причинах проклятия, висящего над городом. Она понимает, ее ребенок — лишь часть большой, ужасающей головоломки…

  • Мировая премьера: 21 апреля 2006
  • Российская премьера: 11 мая 2006, «West»

/
Качество видео: BDRip

Продолжительность: 02:05:19
Формат: avi
Видео: XviD, 720x304, 2020 kbps
Аудио #1: русский, дублированный, AC3 5.1, 448 kbps
Аудио #2: украинский, многоголосый закадровый [профессиональный, "Мова" по заказу ТРК Украина], AC3 5.1, 448 kbps (отдельным файлом)
Аудио #3: английский, оригинал, AC3 5.1, 448 kbps (отдельным файлом)
Субтитры #1: внешние, SRT, русский
Субтитры #2: внешние, SRT, русский Forced
Субтитры #3: внешние, SRT, английский

Код:

General
Complete name                    : D:\Video\Movies\Releases\Silent.Hill.2006.BDRip.XviD.AC3.Rus.D.HQ.Underverse.avi
Format                           : AVI
Format/Info                      : Audio Video Interleave
Format profile                   : OpenDML
File size                        : 2.17 GiB
Duration                         : 2h 5mn
Overall bit rate                 : 2 480 Kbps
Writing application              : VirtualDubMod 1.5.10.2 (build 2540/release)
Writing library                  : VirtualDubMod build 2540/release

Video
ID                               : 0
Format                           : MPEG-4 Visual
Format profile                   : Streaming Video@L1
Format settings, BVOP            : Yes
Format settings, QPel            : No
Format settings, GMC             : No warppoints
Format settings, Matrix          : Custom
Muxing mode                      : Packed bitstream
Codec ID                         : XVID
Codec ID/Hint                    : XviD
Duration                         : 2h 5mn
Bit rate                         : 2 020 Kbps
Width                            : 720 pixels
Height                           : 304 pixels
Display aspect ratio             : 2.35
Frame rate                       : 23.976 fps
Resolution                       : 24 bits
Colorimetry                      : 4:2:0
Scan type                        : Progressive
Bits/(Pixel*Frame)               : 0.385
Stream size                      : 1.77 GiB (81%)
Writing library                  : XviD 64

Audio
ID                               : 1
Format                           : AC-3
Format/Info                      : Audio Coding 3
Codec ID                         : 2000
Duration                         : 2h 5mn
Bit rate mode                    : Constant
Bit rate                         : 448 Kbps
Channel(s)                       : 6 channels
Channel positions                : Front: L C R, Surround: L R, LFE
Sampling rate                    : 48.0 KHz
Stream size                      : 402 MiB (18%)
Alignment                        : Split accross interleaves
Interleave, duration             : 42 ms (1.00 video frame)
Interleave, preload duration     : 500 ms
Title                            : Silent.Hill.2006.Rus.Dub.AC3.5.1.448.kbps.HQ.Underverse.ac3

General
Complete name                    : D:\Video\Movies\Releases\Silent.Hill.2006.BDRip.XviD.AC3.Rus.D.HQ.Underverse.Eng.ac3
Format                           : AC-3
Format/Info                      : Audio Coding 3
File size                        : 402 MiB
Duration                         : 2h 5mn
Overall bit rate                 : 448 Kbps

Audio
Format                           : AC-3
Format/Info                      : Audio Coding 3
Duration                         : 2h 5mn
Bit rate mode                    : Constant
Bit rate                         : 448 Kbps
Channel(s)                       : 6 channels
Channel positions                : Front: L C R, Surround: L R, LFE
Sampling rate                    : 48.0 KHz
Stream size                      : 402 MiB (100%)

General
Complete name                    : D:\Video\Movies\Releases\Silent.Hill.2006.BDRip.XviD.AC3.Rus.D.HQ.Underverse.Ukr.ac3
Format                           : AC-3
Format/Info                      : Audio Coding 3
File size                        : 402 MiB
Duration                         : 2h 5mn
Overall bit rate                 : 448 Kbps

Audio
Format                           : AC-3
Format/Info                      : Audio Coding 3
Duration                         : 2h 5mn
Bit rate mode                    : Constant
Bit rate                         : 448 Kbps
Channel(s)                       : 6 channels
Channel positions                : Front: L C R, Surround: L R, LFE
Sampling rate                    : 48.0 KHz
Stream size                      : 402 MiB (100%)

Семпл: http://multi-up.com/845286

Релиз группы:

picpicpic
Для увеличения картинки щелкните мышкой по превью

Этот торрент недоступен для скачивания без регистрации, однако доступен по публичной magnet-ссылке (источники с публичных трекеров). Перед использованием ссылки прочтите, пожалуйста Пользовательское соглашение, а также как можно дольше оставайтесь на раздаче! Для того, чтобы скачать сам торрент-файл (который видит больше источников), а также для того, чтобы поблагодарить релизера, вам необходимо зарегистрироваться. Если регистрироваться лень - вы можете также попробовать скачать релиз по нашим партнерским ссылкам ниже.

[underverse.su].t25267.torrent
Трекер: Зарегистрирован   [ 21.03.2013 21:49 ]  

Статус: проверено (by Паукан at 22.03.2013 05:25)
Поблагодарили: 2 человека
Тип торрента: публичный - доступные источники с открытых трекеров: 
Размер: 2,17 GB (занимает 1/2 DVDR, для записи нужно 1 болванка DVDR/RW)
 
 
Похожие темы
Форум Тема Автор Торрент Отв. Посл. сооб.
Зарубежное кино [DVDRip, Low-Res HDRip, и т.д.] Сайлент Хилл 2 / Silent Hill: Revelation 3D (Майкл Дж Бассетт) [2012 г., ужасы, триллер, детектив, HDRip] Dub 90ytr90
21 | 1

2 | 955

17

08.03.2013 09:03

Зарубежное кино HQ Сайлент Хилл 2 / Silent Hill: Revelation (Майкл Дж. Бассетт) [2012 г., ужасы, триллер, детектив, BDRip] Dub + Original + Sub(Rus,Eng) HQ Underverse HQ Underverse
0 | 1

0 | 1264

53

18.03.2013 21:40

Зарубежное кино [DVD / HDDVD / BD / Remux] Сайлент Хилл 2 / Silent Hill: Revelation / 2012 / DVD9 / «West Video» (Майкл Дж. Бассетт) [2012 г., ужасы, триллер, DVD-9] Vetal78
0 | 0

0 | 626

2

20.04.2013 06:21

Зарубежное кино [HDDVDRip / BDRip / WEB-DL / HDTV 1080/720р] Сайлент Хилл 2 / Silent Hill: Revelation 3D (Майкл Дж. Бассетт) [2012 г., ужасы, триллер, детектив, BDRip 1080p] Dub МИТЯ
0 | 0

0 | 1556

17

14.02.2013 22:13


Яндекс.Метрика powered by Sphinx


В Н И М А Н И Е
Сайт не распространяет и не хранит электронные версии произведений, а лишь бесплатно и без коммерческой выгоды (не требуя взамен платы,
SMS и т.д.) предоставляет доступ к создаваемому пользователями каталогу ссылок на торрент-файлы, которые содержат только списки хеш-сумм.
Убедительная просьба с жалобами обращаться напрямую к пользователю, разместившему торрент файл.

Вверх