Loading...
Error

Рассказы (Михаил Сегал) [2012 г., драма, комедия, BDRip] HQ Underverse

Статистика раздачи
Размер:  1,45 GB   |    Зарегистрирован:  3 года 8 месяцев   |    Скачан:  93 раза

Полного источника не было: 13 часов

Сидов:  0  |  0 KB/s  ]   Личеров:  0  |  0 KB/s  ]

* - сиды/пиры с внешних источников

   
 
Автор Сообщение

HQ Underverse 

21-Мар-2013 07:34

Рассказы


Год выпуска: 2012
Жанр: драма, комедия
Страна: Россия
Режиссер: Михаил Сегал
В ролях: Андрей Мерзликин, Игорь Угольников, Тамара Миронова, Константин Юшкевич, Дарья Носик, Любовь Новикова, Владислав Лешкевич, Сергей Фетисов, Елена Нестерова, Василий Мичков
Сюжет фильма:
Рукопись молодого писателя попадает в литературное издательство и начинает влиять на жизнь любого, кто откроет её и прочтет хотя бы страницу. Четыре рассказа из рукописи — это четыре истории с непредсказуемой развязкой.

  • Российская премьера: 15 ноября 2012, «WDSSPR»


Качество видео: BDRip

Продолжительность: 01:50:17
Формат: avi
Видео: XviD, 720x400, 1491 kbps
Аудио: русский, оригинал, AC3 5.1, 384 kbps

Код:

General
Complete name                    : G:\Рассказы\Rasskazy.2012.BDRip.XviD.AC3.Rus.O.HQ.Underverse.avi
Format                           : AVI
Format/Info                      : Audio Video Interleave
File size                        : 1.45 GiB
Duration                         : 1h 50mn
Overall bit rate                 : 1 885 Kbps
Writing application              : VirtualDubMod 1.5.10.2 (build 2540/release)
Writing library                  : VirtualDubMod build 2540/release

Video
ID                               : 0
Format                           : MPEG-4 Visual
Format profile                   : Streaming Video@L1
Format settings, BVOP            : Yes
Format settings, QPel            : No
Format settings, GMC             : No warppoints
Format settings, Matrix          : Custom
Muxing mode                      : Packed bitstream
Codec ID                         : XVID
Codec ID/Hint                    : XviD
Duration                         : 1h 50mn
Bit rate                         : 1 492 Kbps
Width                            : 720 pixels
Height                           : 400 pixels
Display aspect ratio             : 16/9
Frame rate                       : 24.000 fps
Resolution                       : 24 bits
Colorimetry                      : 4:2:0
Scan type                        : Progressive
Bits/(Pixel*Frame)               : 0.216
Stream size                      : 1.15 GiB (79%)
Writing library                  : XviD 64

Audio
ID                               : 1
Format                           : AC-3
Format/Info                      : Audio Coding 3
Codec ID                         : 2000
Duration                         : 1h 50mn
Bit rate mode                    : Constant
Bit rate                         : 384 Kbps
Channel(s)                       : 6 channels
Channel positions                : Front: L C R, Surround: L R, LFE
Sampling rate                    : 48.0 KHz
Stream size                      : 303 MiB (20%)
Alignment                        : Split accross interleaves
Interleave, duration             : 42 ms (1.00 video frame)
Interleave, preload duration     : 500 ms

Релиз группы:

picpicpic
Для увеличения картинки щелкните мышкой по превью

Этот торрент недоступен для скачивания без регистрации, однако доступен по публичной magnet-ссылке (источники с публичных трекеров). Перед использованием ссылки прочтите, пожалуйста Пользовательское соглашение, а также как можно дольше оставайтесь на раздаче! Для того, чтобы скачать сам торрент-файл (который видит больше источников), а также для того, чтобы поблагодарить релизера, вам необходимо зарегистрироваться. Если регистрироваться лень - вы можете также попробовать скачать релиз по нашим партнерским ссылкам ниже.

[underverse.su].t25231.torrent
Трекер: Зарегистрирован   [ 21.03.2013 07:34 ]  

Статус: проверено (by Паукан at 21.03.2013 09:28)
Поблагодарили: 4 человека
Тип торрента: публичный - доступные источники с открытых трекеров: 
Размер: 1,45 GB (занимает 1/3 DVDR, для записи нужно 1 болванка DVDR/RW)
 
 
Похожие темы
Форум Тема Автор Торрент Отв. Посл. сооб.
Наше кино [DVDRip, Low-Res HDRip, и т.д.] Рассказы (Михаил Сегал) [2012 г., драма, комедия, BDRip] RG NewCinema
5 | 0

2 | 1614

142

20.03.2013 18:26

Наше кино [DVDRip, Low-Res HDRip, и т.д.] Рассказы (Михаил Сегал) [2012 г., драма, комедия, BDRip-AVC] 90ytr90
2 | 0

0 | 909

29

07.04.2013 13:51

Наше кино [DVDRip, Low-Res HDRip, и т.д.] Рассказы (Михаил Сегал) [2012, Драма, комедия, HDRip] TERRAN
28 | 0

0 | 1001

16

16.04.2013 07:05

BMike99 Пол:Муж

30-Мар-2013 05:13

Формат необычный, но смотреть интересно! В общем, рекомендовано к просмотру.

Magalex 

02-Апр-2013 23:13

Поддерживаю!
Смотреть!

Яндекс.Метрика powered by Sphinx


В Н И М А Н И Е
Сайт не распространяет и не хранит электронные версии произведений, а лишь бесплатно и без коммерческой выгоды (не требуя взамен платы,
SMS и т.д.) предоставляет доступ к создаваемому пользователями каталогу ссылок на торрент-файлы, которые содержат только списки хеш-сумм.
Убедительная просьба с жалобами обращаться напрямую к пользователю, разместившему торрент файл.

Вверх