Loading...
Error

Золотые пауки / The Golden Spiders: A Nero Wolfe Mystery (Билл Дьюк) [2000 г., криминал, детектив, DVDRip-AVC] MVO + Original

Статистика раздачи
Размер:  1,45 GB   |    Зарегистрирован:  3 года 8 месяцев   |    Скачан:  17 раз

Полного источника не было: 5 месяцев 25 дней

Сидов:  0  |  0 KB/s  ]   Личеров:  0  |  0 KB/s  ]

* - сиды/пиры с внешних источников

   
 
Автор Сообщение

garry Пол:Муж

20-Мар-2013 22:39

Золотые пауки / The Golden Spiders: A Nero Wolfe Mystery


Год выпуска: 2000
Жанр: криминал, детектив
Страна: США
Режиссер: Билл Дьюк
В ролях: Мори Чайкин, Тимоти Хаттон, Билл Смитрович, Мими Кузык, Колин Фокс, Сол Рубинек, Ларисса Ласкин, Гэри Райнеке, Бо Старр, Элизабет Браун
Сюжет фильма:
Легендарный частный сыщик Ниро Вульф, гурман и любитель орхидей, раскрыл немало хитроумных преступлений, даже не выходя из дома. Для этого у него есть «глаза и уши» — верный и проницательный помощник Арчи Гудвин. Но дело «Золотых пауков» оказалось одним из самых сложных и запутанных за всю их совместную карьеру.

Таинственный убийца безжалостно и неумолимо уничтожает всех, кто хоть что-то знает о женских серьгах в форме золотых пауков. И каждый раз за рулем шикарного автомобиля, под колесами которого гибнут все новые жертвы, оказываются совершенно разные люди.

  • Мировая премьера: 5 марта 2000

/
Качество видео: DVDRip-AVC

Продолжительность: 01:33:06
Формат: MKV
Видео: x264, 710x478@710x538, 1800 kbps
Аудио #1: русский, многоголосый закадровый [профессиональный, 100ТВ], AC3 2.0, 224 kbps
Аудио #2: английский, оригинал, AC3 2.0, 224 kbps
Субтитры: тип: вшитые отключаемые, английский, формат: SRT

Код:

General
 Complete name : E:\...\The.Golden.Spiders.A.Nero.Wolfe.Mystery.2000.NTSC.DVDRip.x264.DD2.0.Rus.Eng-E76.mkv
 Format : Matroska
 Format version : Version 2
 File size : 1.45 GiB
 Duration : 1h 33mn
 Overall bit rate : 2 230 Kbps
 Movie name : The.Golden.Spiders.A.Nero.Wolfe.Mystery.2000.NTSC.DVDRip.x264.DD2.0.Rus.Eng-E76
 Encoded date : UTC 2013-03-13 07:43:44
 Writing application : mkvmerge v5.8.0 ('No Sleep / Pillow') built on Sep 2 2012 15:37:04
 Writing library : libebml v1.2.3 + libmatroska v1.3.0

Video
 ID : 1
 Format : AVC
 Format/Info : Advanced Video Codec
 Format profile : High@L4.1
 Format settings, CABAC : Yes
 Format settings, ReFrames : 10 frames
 Codec ID : V_MPEG4/ISO/AVC
 Bit rate : 1 780 Kbps
 Width : 710 pixels
 Height : 478 pixels
 Display aspect ratio : 4:3
 Original display aspect ratio : 3:2
 Frame rate mode : Variable
 Original frame rate : 23.976 fps
 Color space : YUV
 Chroma subsampling : 4:2:0
 Bit depth : 8 bits
 Scan type : Progressive
 Bits/(Pixel*Frame) : 0.219
 Title : Encode by Enclave76
 Writing library : x264 core 129 r2245kMod bc13772
 Encoding settings : cabac=1 / ref=10 / deblock=1:-3:-3 / analyse=0x3:0x133 / me=umh / subme=10 / psy=1 / fade_compensate=0.00 / psy_rd=1.20:0.00 / mixed_ref=1 / me_range=32 / chroma_me=1 / trellis=2 / 8x8dct=1 / cqm=0 / deadzone=21,11 / fast_pskip=0 / chroma_qp_offset=-2 / threads=6 / lookahead_threads=1 / sliced_threads=0 / nr=0 / decimate=0 / interlaced=0 / bluray_compat=0 / constrained_intra=0 / bframes=16 / b_pyramid=2 / b_adapt=2 / b_bias=0 / direct=3 / weightb=1 / open_gop=0 / weightp=2 / keyint=240 / keyint_min=23 / scenecut=40 / intra_refresh=0 / rc_lookahead=40 / rc=2pass / mbtree=0 / bitrate=1780 / ratetol=1.0 / qcomp=0.70 / qpmin=0 / qpmax=69 / qpstep=4 / cplxblur=20.0 / qblur=0.5 / vbv_maxrate=17500 / vbv_bufsize=14000 / nal_hrd=none / ip_ratio=1.40 / pb_ratio=1.20 / aq=3:1.00
 Language : English
 Default : No
 Forced : No
 Matrix coefficients : BT.601

Audio #1
 ID : 2
 Format : AC-3
 Format/Info : Audio Coding 3
 Mode extension : CM (complete main)
 Format settings, Endianness : Big
 Codec ID : A_AC3
 Duration : 1h 33mn
 Bit rate mode : Constant
 Bit rate : 224 Kbps
 Channel(s) : 2 channels
 Channel positions : Front: L R
 Sampling rate : 48.0 KHz
 Bit depth : 16 bits
 Compression mode : Lossy
 Stream size : 149 MiB (10%)
 Title : MVO 100TV
 Language : Russian
 Default : Yes
 Forced : No

Audio #2
 ID : 3
 Format : AC-3
 Format/Info : Audio Coding 3
 Mode extension : CM (complete main)
 Format settings, Endianness : Big
 Codec ID : A_AC3
 Duration : 1h 33mn
 Bit rate mode : Constant
 Bit rate : 224 Kbps
 Channel(s) : 2 channels
 Channel positions : Front: L R
 Sampling rate : 48.0 KHz
 Bit depth : 16 bits
 Compression mode : Lossy
 Stream size : 149 MiB (10%)
 Title : Original
 Language : English
 Default : No
 Forced : No

Text
 ID : 4
 Format : UTF-8
 Codec ID : S_TEXT/UTF8
 Codec ID/Info : UTF-8 Plain Text
 Language : English
 Default : No
 Forced : No
Семпл: http://multi-up.com/843330

Релиз группы:

picpicpic
Для увеличения картинки щелкните мышкой по превью

Этот торрент недоступен для скачивания без регистрации, однако доступен по публичной magnet-ссылке (источники с публичных трекеров). Перед использованием ссылки прочтите, пожалуйста Пользовательское соглашение, а также как можно дольше оставайтесь на раздаче! Для того, чтобы скачать сам торрент-файл (который видит больше источников), а также для того, чтобы поблагодарить релизера, вам необходимо зарегистрироваться. Если регистрироваться лень - вы можете также попробовать скачать релиз по нашим партнерским ссылкам ниже.

[underverse.su].t25226.torrent
Трекер: Зарегистрирован   [ 20.03.2013 22:39 ]  

Статус: проверено (by Паукан at 21.03.2013 09:17)
Поблагодарили: 1 человек
Тип торрента: публичный - доступные источники с открытых трекеров: 
Размер: 1,45 GB (занимает 1/3 DVDR, для записи нужно 1 болванка DVDR/RW)
 
 

Яндекс.Метрика powered by Sphinx


В Н И М А Н И Е
Сайт не распространяет и не хранит электронные версии произведений, а лишь бесплатно и без коммерческой выгоды (не требуя взамен платы,
SMS и т.д.) предоставляет доступ к создаваемому пользователями каталогу ссылок на торрент-файлы, которые содержат только списки хеш-сумм.
Убедительная просьба с жалобами обращаться напрямую к пользователю, разместившему торрент файл.

Вверх