Loading...
Error

Контакт / Contact (Роберт Земекис) [1997 г., фантастика, триллер, драма, детектив, BDRip-AVC]

Статистика раздачи
Размер:  2,5 GB   |    Зарегистрирован:  3 года 8 месяцев   |    Скачан:  11 раз

Полного источника не было: 2 года 2 месяца

Сидов:  0  |  0 KB/s  ]   Личеров:  0  |  0 KB/s  ]

* - сиды/пиры с внешних источников

   
 
Автор Сообщение

olleg Пол:Муж

20-Мар-2013 16:19

Контакт / Contact


Год выпуска: 1997
Жанр: фантастика, триллер, драма, детектив
Страна: США
Режиссер: Роберт Земекис
В ролях: Джоди Фостер, Мэттью МакКонахи, Джена Мэлоун, Дэвид Морс, Уильям Фихтнер, Джеффри Блейк, Том Скеррит, Джеймс Вудс, Джейк Бьюзи, Джон Хёрт
Сюжет фильма:
Элли Эрроуэй всегда мечтала о космических полетах, она с детских лет верила, что мы не одни во вселенной и пыталась ловить сигналы братьев по разуму с помощью самодельного приемника. Когда Элли выросла и стала астрономом, она зафиксировала сигналы искусственного происхождения, идущие с Веги, после расшифровки сигналов, Элли начала стоить корабль, для того чтобы отправиться на Вегу. Когда строительство подошло к концу, не слушая многочисленных скептиков, Элли отправилась в неведомое, чтобы осуществить долгожданный Контакт.

  • Мировая премьера: 11 июля 1997
  • Российская премьера: 11 июля 1997

Качество видео: BDRip-AVC

Продолжительность: 02:29:41
Формат: mkv
Видео: x264, 720x304, 1963 kbps
Аудио: русский, дублированный, AC3 5.1, 384 kbps

Код:

General
Complete name                    : D:\Фильмы\01_Смотрел\Контакт_5+.mkv
Format                           : Matroska
File size                        : 2.50 GiB
Duration                         : 2h 29mn
Overall bit rate                 : 2 395 Kbps
Encoded date                     : UTC 2010-07-01 13:45:00
Writing application              : VirtualDubModRus 1.5.10.2 (build 2542/release)
Writing library                  : libebml-0.7.5 & libmatroska-0.7.7

Video
ID                               : 1
Format                           : AVC
Format/Info                      : Advanced Video Codec
Format profile                   : High@L3.1
Format settings, CABAC           : Yes
Format settings, ReFrames        : 2 frames
Codec ID                         : AVC1
Duration                         : 2h 29mn
Bit rate                         : 1 963 Kbps
Nominal bit rate                 : 1 997 Kbps
Width                            : 720 pixels
Height                           : 304 pixels
Display aspect ratio             : 2.35
Frame rate                       : 23.976 fps
Resolution                       : 24 bits
Colorimetry                      : 4:2:0
Scan type                        : Progressive
Bits/(Pixel*Frame)               : 0.374
Stream size                      : 2.05 GiB (82%)
Writing library                  : x264 core 1679598476May  4 2010
Encoding settings                : cabac=1 / ref=1 / deblock=0:0:0 / analyse=0x3:0x113 / me=hex / subme=5 / psy=1 / psy_rd=0.0:0.0 / mixed_ref=0 / me_range=16 / chroma_me=1 / trellis=0 / 8x8dct=1 / cqm=0 / deadzone=21,11 / chroma_qp_offset=0 / threads=1 / nr=0 / decimate=1 / mbaff=0 / bframes=3 / b_pyramid=0 / b_adapt=1 / b_bias=0 / direct=1 / wpredb=1 / keyint=250 / keyint_min=1 / scenecut=40 / rc_lookahead=40 / rc=abr / mbtree=1 / bitrate=1997 / ratetol=1.0 / qcomp=0.50 / qpmin=2 / qpmax=31 / qpstep=4 / ip_ratio=1.40 / aq=1:0.30

Audio
ID                               : 2
Format                           : AC-3
Format/Info                      : Audio Coding 3
Codec ID                         : 2000
Duration                         : 2h 29mn
Bit rate mode                    : Constant
Bit rate                         : 384 Kbps
Channel(s)                       : 6 channels
Channel positions                : Front: L C R, Surround: L R, LFE
Sampling rate                    : 48.0 KHz
Video delay                      : 2ms
Stream size                      : 411 MiB (16%)

picpicpicpic
Для увеличения картинки щелкните мышкой по превью

Этот торрент недоступен для скачивания без регистрации, однако доступен по публичной magnet-ссылке (источники с публичных трекеров). Перед использованием ссылки прочтите, пожалуйста Пользовательское соглашение, а также как можно дольше оставайтесь на раздаче! Для того, чтобы скачать сам торрент-файл (который видит больше источников), а также для того, чтобы поблагодарить релизера, вам необходимо зарегистрироваться. Если регистрироваться лень - вы можете также попробовать скачать релиз по нашим партнерским ссылкам ниже.

[underverse.su].t25210.torrent
Трекер: Зарегистрирован   [ 20.03.2013 16:19 ]  

Статус: проверено (by Чертёнок at 20.03.2013 17:42)
Поблагодарили: 2 человека
Тип торрента: публичный - доступные источники с открытых трекеров: 
Размер: 2,5 GB (занимает 0,57 DVDR, для записи нужно 1 болванка DVDR/RW)
 
 
Похожие темы
Форум Тема Автор Торрент Отв. Посл. сооб.
Зарубежное кино [DVDRip, Low-Res HDRip, и т.д.] Контакт / The Encounter (Роберт Конуэй / Robert Conway) [2015 г., ужасы, фантастика, HDRip] VO (Васька Куролесов) 90ytr90
65 | 1

0 | 463

12

16.02.2016 16:15

Зарубежное кино [DVDRip, Low-Res HDRip, и т.д.] Контакт / The Encounter (Роберт Конуэй / Robert Conway) [2015 г., ужасы, фантастика, HDRip-AVC] VO (Васька Куролесов) + Original (Eng) + Sub (Eng) 90ytr90
12 | 1

0 | 521

17

17.02.2016 06:48

Зарубежное кино [HDDVDRip / BDRip / WEB-DL / HDTV 1080/720р] Контакт / Contact (Роберт Земекис) [1997 г., фантастика, триллер, драма, детектив, BDRip 1080p] Dub + AVO + Original МИТЯ
0 | 0

0 | 710

4

20.03.2013 18:30

Зарубежное кино [HDDVDRip / BDRip / WEB-DL / HDTV 1080/720р] Контакт / The Encounter (Роберт Конуэй / Robert Conway) [2015 г., ужасы, фантастика, BDRip 1080p] VO (Васька Куролесов) + Original (Eng) 90ytr90
14 | 0

0 | 542

12

17.02.2016 06:55



Последний раз редактировалось: olleg (20.03.2013 16:35), всего редактировалось 2 раз(а)

olleg Пол:Муж

20-Мар-2013 16:33

Этот фильм для меня один из сильнейших из фантастики. Без лишних понтов и зеленых человечков, но с отличным сюжетом (особенно понравился затронутый вопрос веры).

МИТЯ Пол:Муж

20-Мар-2013 17:24

Да, не плохой, у меня где то 1080 еще есть

Яндекс.Метрика powered by Sphinx


В Н И М А Н И Е
Сайт не распространяет и не хранит электронные версии произведений, а лишь бесплатно и без коммерческой выгоды (не требуя взамен платы,
SMS и т.д.) предоставляет доступ к создаваемому пользователями каталогу ссылок на торрент-файлы, которые содержат только списки хеш-сумм.
Убедительная просьба с жалобами обращаться напрямую к пользователю, разместившему торрент файл.

Вверх