Loading...
Error

Сайлент Хилл 2 / Silent Hill: Revelation (Майкл Дж. Бассетт) [2012 г., ужасы, триллер, детектив, BDRip] Dub + Original + Sub(Rus,Eng) HQ Underverse

Статистика раздачи
Размер:  1,45 GB   |    Зарегистрирован:  3 года 8 месяцев   |    Скачан:  53 раза

Полного источника не было: 20 часов

Сидов:  0  |  0 KB/s  ]   Личеров:  0  |  0 KB/s  ]

* - сиды/пиры с внешних источников

   
 
Автор Сообщение

HQ Underverse 

18-Мар-2013 21:40

Сайлент Хилл 2 / Silent Hill: Revelation


Год выпуска: 2012
Жанр: ужасы, триллер, детектив
Страна: Франция , США , Канада
Режиссер: Майкл Дж. Бассетт
В ролях: Эделейд Клеменс, Кит Харингтон, Дебора Кара Ангер, Мартин Донован, Малкольм МакДауэлл, Кэрри-Энн Мосс, Шон Бин, Рада Митчелл, Роберто Кампанелла, Эрин Питт
Сюжет фильма:
Хизер терзается ночными кошмарами с одиннадцатилетнего возраста и вынуждена со своим отцом постоянно менять место жительства, скрываясь от таинственных сил. Накануне своего восемнадцатого дня рождения Хизер, вернувшись домой, обнаруживает, что её отец исчез. Единственное, что она нашла дома — нарисованный на стене оккультный символ с надписью «отправляйся в Сайлент Хилл».

  • Мировая премьера: 25 октября 2012
  • Российская премьера: 25 октября 2012, «West» 3D

/
Качество видео: BDRip [Silent.Hill.Revelation.2012.BluRay.1080p.AVC.DTS-HD.MA5.1-CHDBits]

Продолжительность: 01:34:46
Формат: avi
Видео: XviD, 720x304, 1734 kbps
Аудио #1: русский, дублированный [лицензия, R5], AC3 5.1, 448 kbps
Аудио #2: английский, оригинал, AC3 5.1, 448 kbps (отдельным файлом)
Субтитры #1: внешние, SRT, русский
Субтитры #2: внешние, SRT, английский

Код:

General
Complete name                    : D:\Video\Movies\Releases\Silent.Hill.Revelation.2012.BDRip.XviD.AC3.Rus.D.HQ.Underverse.avi
Format                           : AVI
Format/Info                      : Audio Video Interleave
File size                        : 1.45 GiB
Duration                         : 1h 34mn
Overall bit rate                 : 2 192 Kbps
Writing application              : VirtualDubMod 1.5.10.2 (build 2540/release)
Writing library                  : VirtualDubMod build 2540/release

Video
ID                               : 0
Format                           : MPEG-4 Visual
Format profile                   : Streaming Video@L1
Format settings, BVOP            : Yes
Format settings, QPel            : No
Format settings, GMC             : No warppoints
Format settings, Matrix          : Custom
Muxing mode                      : Packed bitstream
Codec ID                         : XVID
Codec ID/Hint                    : XviD
Duration                         : 1h 34mn
Bit rate                         : 1 734 Kbps
Width                            : 720 pixels
Height                           : 304 pixels
Display aspect ratio             : 2.35
Frame rate                       : 23.976 fps
Resolution                       : 24 bits
Colorimetry                      : 4:2:0
Scan type                        : Progressive
Bits/(Pixel*Frame)               : 0.330
Stream size                      : 1.15 GiB (79%)
Writing library                  : XviD 64

Audio
ID                               : 1
Format                           : AC-3
Format/Info                      : Audio Coding 3
Codec ID                         : 2000
Duration                         : 1h 34mn
Bit rate mode                    : Constant
Bit rate                         : 448 Kbps
Channel(s)                       : 6 channels
Channel positions                : Front: L C R, Surround: L R, LFE
Sampling rate                    : 48.0 KHz
Video delay                      : 300ms
Stream size                      : 304 MiB (20%)
Alignment                        : Split accross interleaves
Interleave, duration             : 42 ms (1.00 video frame)
Interleave, preload duration     : 500 ms
Title                            : Silent.Hill.Revelation.2012.Rus.Dub.AC3.5.1.448.kbps.HQ.Underverse.ac3

General
Complete name                    : D:\Video\Movies\Releases\Silent.Hill.Revelation.2012.BDRip.XviD.AC3.Rus.D.HQ.Underverse.Eng.ac3
Format                           : AC-3
Format/Info                      : Audio Coding 3
File size                        : 304 MiB
Duration                         : 1h 34mn
Overall bit rate                 : 448 Kbps

Audio
Format                           : AC-3
Format/Info                      : Audio Coding 3
Duration                         : 1h 34mn
Bit rate mode                    : Constant
Bit rate                         : 448 Kbps
Channel(s)                       : 6 channels
Channel positions                : Front: L C R, Surround: L R, LFE
Sampling rate                    : 48.0 KHz
Stream size                      : 304 MiB (100%)

Семпл: http://multi-up.com/844433

Релиз группы:

picpicpic
Для увеличения картинки щелкните мышкой по превью

Этот торрент недоступен для скачивания без регистрации, однако доступен по публичной magnet-ссылке (источники с публичных трекеров). Перед использованием ссылки прочтите, пожалуйста Пользовательское соглашение, а также как можно дольше оставайтесь на раздаче! Для того, чтобы скачать сам торрент-файл (который видит больше источников), а также для того, чтобы поблагодарить релизера, вам необходимо зарегистрироваться. Если регистрироваться лень - вы можете также попробовать скачать релиз по нашим партнерским ссылкам ниже.

[underverse.su].t25161.torrent
Трекер: Зарегистрирован   [ 18.03.2013 21:40 ]  

Статус: проверено (by garry at 18.03.2013 21:45)
Поблагодарили: 1 человек
Тип торрента: публичный - доступные источники с открытых трекеров: 
Размер: 1,45 GB (занимает 1/3 DVDR, для записи нужно 1 болванка DVDR/RW)
 
 
Похожие темы
Форум Тема Автор Торрент Отв. Посл. сооб.
Зарубежное кино [DVDRip, Low-Res HDRip, и т.д.] Сайлент Хилл 2 / Silent Hill: Revelation 3D (Майкл Дж Бассетт) [2012 г., ужасы, триллер, детектив, HDRip] Dub 90ytr90
21 | 1

2 | 955

17

08.03.2013 09:03

Зарубежное кино HQ Сайлент Хилл / Silent Hill (Кристоф Ганс) [2006 г., ужасы, приключения, BDRip] Dub(Rus,Ukr) + Sub(Rus,Eng) + Original HQ Underverse HQ Underverse
0 | 1

0 | 1194

17

21.03.2013 21:49

Зарубежное кино [DVD / HDDVD / BD / Remux] Сайлент Хилл 2 / Silent Hill: Revelation / 2012 / DVD9 / «West Video» (Майкл Дж. Бассетт) [2012 г., ужасы, триллер, DVD-9] Vetal78
0 | 0

0 | 623

2

20.04.2013 06:21

Зарубежное кино [HDDVDRip / BDRip / WEB-DL / HDTV 1080/720р] Сайлент Хилл 2 / Silent Hill: Revelation 3D (Майкл Дж. Бассетт) [2012 г., ужасы, триллер, детектив, BDRip 1080p] Dub МИТЯ
0 | 0

0 | 1556

17

14.02.2013 22:13


Яндекс.Метрика powered by Sphinx


В Н И М А Н И Е
Сайт не распространяет и не хранит электронные версии произведений, а лишь бесплатно и без коммерческой выгоды (не требуя взамен платы,
SMS и т.д.) предоставляет доступ к создаваемому пользователями каталогу ссылок на торрент-файлы, которые содержат только списки хеш-сумм.
Убедительная просьба с жалобами обращаться напрямую к пользователю, разместившему торрент файл.

Вверх