Loading...
Error

Морской пехотинец 3: Тыл / The Marine 3: Homefront (Скотт Вайпер / Scott Wiper) [2013 г., Боевик, HDRip] MVO

Статистика раздачи
Размер:  700 MB   |    Зарегистрирован:  3 года 8 месяцев   |    Скачан:  18 раз

Полного источника не было: 5 месяцев 12 дней

Сидов:  0  |  0 KB/s  ]   Личеров:  0  |  0 KB/s  ]

* - сиды/пиры с внешних источников

   
 
Автор Сообщение

Gaarochi Пол:Муж

18-Мар-2013 16:10

Морской пехотинец 3: Тыл / The Marine 3: Homefront


Год выпуска: 2013
Жанр: Боевик
Страна: США
Режиссер: Скотт Вайпер / Scott Wiper
В ролях: Майк Мизанин, Нил МакДонаф, Джаред Кисо, Джеффри Баллард, Бен Коттон, Стив Бачич, Шон Тайсон, Дарси Лори, Алекс Паунович, Николя Андерсон...
Сюжет фильма:
Солдат-морпех, приехавший домой на время отпуска, оказывается в эпицентре напряженных событий. Ему приходится рисковать жизнью, чтобы спасти свою сестру, которую похитила вооруженная банда, готовящая террористическую атаку на один из бизнес-центров Сиэтла.

  • Мировая премьера: 5 марта 2013


Качество видео: HDRip

Продолжительность: 1:30:09
Формат: AVI
Видео: XviD, 640x352, ~947 kbps avg
Аудио: русский, многоголосый закадровый [любительский], MP3 2.0, ~192.00 kbps avg

Код:

General
 Complete name: G:\Фильмы\Морской Пехотинец 3.Тыл (Гараж Дубляж).avi
 Format: AVI
 Format/Info: Audio Video Interleave
 File size: 700 MiB
 Duration: 1h 30mn
 Overall bit rate: 1 085 Kbps
 Writing application: VirtualDubMod 1.5.10.3 | www.virtualdub-fr.org || (build 2550/release)
 Writing library: VirtualDub build 32842/release

Video
 ID: 0
 Format: MPEG-4 Visual
 Format profile: Advanced Simple@L5
 Format settings, BVOP: Yes
 Format settings, QPel: No
 Format settings, GMC: No warppoints
 Format settings, Matrix: Default (MPEG)
 Codec ID: XVID
 Codec ID/Hint: XviD
 Duration: 1h 30mn
 Bit rate: 948 Kbps
 Width: 640 pixels
 Height: 352 pixels
 Display aspect ratio: 16:9
 Frame rate: 23.976 fps
 Resolution: 8 bits
 Colorimetry: 4:2:0
 Scan type: Progressive
 Bits/(Pixel*Frame): 0.175
 Stream size: 611 MiB (87%)
 Writing library: XviD 1.2.1 (UTC 2008-12-04)

Audio
 ID: 1
 Format : MPEG Audio
 Format version: Version 1
 Format profile: Layer 3
 Mode: Joint stereo
 Format_Settings_ModeExtension: MS Stereo
 Codec ID: 55
 Codec ID/Hint: MP3
 Duration: 1h 30mn
 Bit rate mode: Constant
 Bit rate: 128 Kbps
 Channel(s): 2 channels
 Sampling rate: 48.0 KHz
 Stream size: 82.5 MiB (12%)
 Alignment: Split accross interleaves
 Interleave, duration: 42 ms (1.00 video frame)
 Interleave, preload duration: 500 ms
Семпл: http://rusfolder.com/35520695

picpicpic
Для увеличения картинки щелкните мышкой по превью

Этот торрент недоступен для скачивания без регистрации, однако доступен по публичной magnet-ссылке (источники с публичных трекеров). Перед использованием ссылки прочтите, пожалуйста Пользовательское соглашение, а также как можно дольше оставайтесь на раздаче! Для того, чтобы скачать сам торрент-файл (который видит больше источников), а также для того, чтобы поблагодарить релизера, вам необходимо зарегистрироваться. Если регистрироваться лень - вы можете также попробовать скачать релиз по нашим партнерским ссылкам ниже.

[underverse.su].t25153.torrent
Трекер: Зарегистрирован   [ 18.03.2013 16:10 ]  

Статус: проверено (by Чертёнок at 18.03.2013 16:55)
Поблагодарили: пока никто не поблагодарил...
Тип торрента: публичный - доступные источники с открытых трекеров: 
Размер: 700 MB (занимает 0,16 DVDR, для записи нужно 1 болванка DVDR/RW)
 
 
Похожие темы
Форум Тема Автор Торрент Отв. Посл. сооб.
Зарубежное кино [DVDRip, Low-Res HDRip, и т.д.] Морской пехотинец: Тыл / The Marine: Homefront (Скотт Вайпер) [2013 г., боевик, HDRip] VO (den904) 90ytr90
0 | 0

0 | 1108

39

10.03.2013 10:40

Зарубежное кино [DVDRip, Low-Res HDRip, и т.д.] Морской пехотинец: Тыл / The Marine: Homefront (Скотт Вайпер) [2013 г., боевик, HDRip] MVO (yotaplay) 90ytr90
3 | 0

0 | 965

16

02.04.2013 14:40

Зарубежное кино [DVDRip, Low-Res HDRip, и т.д.] Морской пехотинец: Тыл / The Marine: Homefront (Скотт Вайпер) [2013 г., боевик, HDRip] MVO 90ytr90
1 | 0

1 | 987

12

13.04.2013 21:20

T Зарубежное кино [DVDRip, Low-Res HDRip, и т.д.] Морской пехотинец 4 / The Marine 4: Moving Target (Уильям Кауфман) [2015 г., боевик, триллер, HDRip] Паукан
4 | 0

0 | 536

25

22.04.2015 11:01

* Зарубежное кино [HDDVDRip / BDRip / WEB-DL / HDTV 1080/720р] Морской пехотинец: Тыл / The Marine: Homefront (Скотт Вайпер / Scott Wiper) [2012 г., боевик, BDRip 720p] MVO + Original Gaarochi

0 | 439

03.04.2013 10:47

T Зарубежное кино [HDDVDRip / BDRip / WEB-DL / HDTV 1080/720р] Морской пехотинец 4 / The Marine 4: Moving Target (Уильям Кауфман) [2015 г., боевик, триллер, BDRip 720p] MVO [iTunes] + Original + Sub (Eng) Паукан
18 | 0

0 | 544

21

22.04.2015 12:27

Архив Морской пехотинец 2 / The Marine 2 (Роэль Рейн) [2009 г., боевик, триллер, DVD-5] andrej-ku
0 | 0

1 | 1621

0

17.02.2011 14:46


Яндекс.Метрика powered by Sphinx


В Н И М А Н И Е
Сайт не распространяет и не хранит электронные версии произведений, а лишь бесплатно и без коммерческой выгоды (не требуя взамен платы,
SMS и т.д.) предоставляет доступ к создаваемому пользователями каталогу ссылок на торрент-файлы, которые содержат только списки хеш-сумм.
Убедительная просьба с жалобами обращаться напрямую к пользователю, разместившему торрент файл.

Вверх