Loading...
Error

Убей ради меня / Kill for Me (Майкл Гринспен / Michael Greenspan) [2013 г., триллер, драма, DVDRip-AVC] MVO

Статистика раздачи
Размер:  1,37 GB   |    Зарегистрирован:  3 года 8 месяцев   |    Скачан:  9 раз

Полного источника не было: 3 года 5 месяцев

Сидов:  0  |  0 KB/s  ]   Личеров:  0  |  0 KB/s  ]

* - сиды/пиры с внешних источников

   
 
Автор Сообщение

Gaarochi Пол:Муж

18-Мар-2013 13:54

Убей ради меня / Kill for Me


Год выпуска: 2013
Жанр: триллер, драма
Страна: Канада
Режиссер: Майкл Гринспен / Michael Greenspan
В ролях: Кэти Кэссиди, Шеннон Чан-Кент (Zoe Lamont), Торранс Кумбс (Cameron), Адам ДиМарко (Mark), Лини Эванс (911 Operator), Леа Гибсон (Natalie Pritchard), Чела Хорсдэл (Sen. Maria Klein), Колин Лоуренс (Detective Howe), Донал Лог (Garret Jones), Райан Роббинс (Detective Ferris), Трэйси Спиридакос (Hailey Jones), Керстен ВанРитцен (Female Driver)


Сюжет фильма:
Две соседки по комнате планируют убийства людей из своего прошлого, чтобы помочь решить проблемы друг друга.

  • Мировая премьера: 12 февраля 2013
  • Российская премьера: 26 марта 2013






Качество видео: DVDRip-AVC

Продолжительность: 01:31:04.
Формат: MKV
Видео: MPEG-4 AVC, 720 x 552, 1704 kbps
Аудио: русский, многоголосый закадровый [профессиональный], AC3 5.1, 448 kbps
Субтитры: тип: вшитые отключаемые, русский, формат: SRT

Код:

Общее
 Полное имя : Kill.for.Me.2013.DVDRip-AVC.mkv
 Формат : Matroska
 Версия формата : Version 4 / Version 2
 Размер файла : 1,37 Гбайт
 Продолжительность : 1 ч. 31 м.
 Общий поток : 2153 Кбит/сек
 Дата кодирования : UTC 2013-03-18 08:24:15
 Программа кодирования : mkvmerge v6.1.0 ('Old Devil') built on Mar 2 2013 14:32:37
 Библиотека кодирования : libebml v1.3.0 + libmatroska v1.4.0

Видео
 Идентификатор : 1
 Формат : AVC
 Формат/Информация : Advanced Video Codec
 Профиль формата : High@L3.1
 Параметр CABAC формата : Да
 Параметр ReFrames формата : 9 кадров
 Идентификатор кодека : V_MPEG4/ISO/AVC
 Продолжительность : 1 ч. 31 м.
 Битрейт : 1704 Кбит/сек
 Ширина : 720 пикселей
 Высота : 552 пикселя
 Соотношение сторон : 1,85:1
 Режим частоты кадров : Постоянный
 Частота кадров : 25,000 кадров/сек
 Цветовое пространство : YUV
 Субдискретизация насыщенности : 4:2:0
 Битовая глубина : 8 бит
 Тип развёртки : Прогрессивная
 Бит/(Пиксели*Кадры) : 0.171
 Размер потока : 1,06 Гбайт (77%)
 Библиотека кодирования : x264 core 130 r2273 b3065e6
 Настройки программы : cabac=1 / ref=9 / deblock=1:-1:-1 / analyse=0x3:0x133 / me=umh / subme=9 / psy=1 / psy_rd=1.00:0.10 / mixed_ref=1 / me_range=24 / chroma_me=1 / trellis=2 / 8x8dct=1 / cqm=0 / deadzone=21,11 / fast_pskip=0 / chroma_qp_offset=-3 / threads=12 / lookahead_threads=1 / sliced_threads=0 / nr=0 / decimate=1 / interlaced=0 / bluray_compat=0 / constrained_intra=0 / bframes=6 / b_pyramid=2 / b_adapt=2 / b_bias=0 / direct=3 / weightb=1 / open_gop=0 / weightp=2 / keyint=250 / keyint_min=25 / scenecut=40 / intra_refresh=0 / rc=2pass / mbtree=0 / bitrate=1704 / ratetol=1.0 / qcomp=0.60 / qpmin=0 / qpmax=69 / qpstep=4 / cplxblur=20.0 / qblur=0.5 / ip_ratio=1.40 / pb_ratio=1.30 / aq=1:1.00
 Язык : English
 Default : Да
 Forced : Нет

Аудио
 Идентификатор : 2
 Формат : AC-3
 Формат/Информация : Audio Coding 3
 Расширение режима : CM (complete main)
 Параметр Endianness формата : Big
 Идентификатор кодека : A_AC3
 Продолжительность : 1 ч. 31 м.
 Вид битрейта : Постоянный
 Битрейт : 448 Кбит/сек
 Каналы : 6 каналов
 Расположение каналов : Front: L C R, Side: L R, LFE
 Частота : 48,0 КГц
 Битовая глубина : 16 бит
 Метод сжатия : С потерями
 Размер потока : 292 Мбайт (21%)
 Язык : Russian
 Default : Да
 Forced : Нет

Текст
 Идентификатор : 3
 Формат : UTF-8
 Идентификатор кодека : S_TEXT/UTF8
 Идентификатор кодека/Информация : UTF-8 Plain Text
 Язык : Russian
 Default : Нет
 Forced : Нет

Меню
 00:00:00.000 : :Chapter 01
 00:09:08.720 : :Chapter 02
 00:13:47.720 : :Chapter 03
 00:18:38.200 : :Chapter 04
 00:23:02.720 : :Chapter 05
 00:29:30.960 : :Chapter 06
 00:35:06.080 : :Chapter 07
 00:37:58.080 : :Chapter 08
 00:43:19.760 : :Chapter 09
 00:49:16.160 : :Chapter 10
 00:55:13.160 : :Chapter 11
 01:01:04.080 : :Chapter 12
 01:08:48.720 : :Chapter 13
 01:13:17.600 : :Chapter 14
 01:17:33.000 : :Chapter 15
 01:23:11.920 : :Chapter 16


picpicpic
Для увеличения картинки щелкните мышкой по превью

Этот торрент недоступен для скачивания без регистрации, однако доступен по публичной magnet-ссылке (источники с публичных трекеров). Перед использованием ссылки прочтите, пожалуйста Пользовательское соглашение, а также как можно дольше оставайтесь на раздаче! Для того, чтобы скачать сам торрент-файл (который видит больше источников), а также для того, чтобы поблагодарить релизера, вам необходимо зарегистрироваться. Если регистрироваться лень - вы можете также попробовать скачать релиз по нашим партнерским ссылкам ниже.

[underverse.su].t25146.torrent
Трекер: Зарегистрирован   [ 18.03.2013 13:54 ]  

Статус: проверено (by Чертёнок at 18.03.2013 15:42)
Поблагодарили: 1 человек
Тип торрента: публичный - доступные источники с открытых трекеров: 
Размер: 1,37 GB (занимает 0,31 DVDR, для записи нужно 1 болванка DVDR/RW)
 
 
Похожие темы
Форум Тема Автор Торрент Отв. Посл. сооб.
Зарубежное кино [DVDRip, Low-Res HDRip, и т.д.] Убей ради меня / Kill for Me (Майкл Гринспен) [2013 г., триллер, драма, WEB-DLRip] MVO 90ytr90
11 | 0

0 | 763

20

16.03.2013 17:45



Последний раз редактировалось: Gaarochi (28.03.2013 19:42), всего редактировалось 4 раз(а)

BlackPanther Пол:Муж

27-Мар-2013 19:36

Thanks!

garry Пол:Муж

27-Мар-2013 22:05

Цитата:

Аудио: русский, многоголосый закадровый [профессиональный], AC3 2.0, 448 kbps
медиаинфо говорит, что 6 каналов

Gaarochi Пол:Муж

28-Мар-2013 19:26

BlackPanther писал(а):

Thanks!
Приятного просмотра!

Яндекс.Метрика powered by Sphinx


В Н И М А Н И Е
Сайт не распространяет и не хранит электронные версии произведений, а лишь бесплатно и без коммерческой выгоды (не требуя взамен платы,
SMS и т.д.) предоставляет доступ к создаваемому пользователями каталогу ссылок на торрент-файлы, которые содержат только списки хеш-сумм.
Убедительная просьба с жалобами обращаться напрямую к пользователю, разместившему торрент файл.

Вверх