Loading...
Error

Аниматрица / The Animatrix (Питер Чунг, Энди Джонс, Ёсиаки Кавадзири) [2003 г., аниме, мультфильм, фантастика, боевик, драма, BDRip 720p] Dub + MVO + DVO

Статистика раздачи
Размер:  4,57 GB   |    Зарегистрирован:  3 года 8 месяцев   |    Скачан:  11 раз

Полного источника не было: 4 месяца 5 дней

Сидов:  0  |  0 KB/s  ]   Личеров:  0  |  0 KB/s  ]

* - сиды/пиры с внешних источников

   
 
Автор Сообщение

Jimmy Пол:Муж

17-Мар-2013 06:36

Аниматрица / The Animatrix

Год выпуска: 2003
Жанр: аниме, мультфильм, фантастика, боевик, драма
Страна: США
Режиссер: Питер Чунг, Энди Джонс, Ёсиаки Кавадзири
В ролях: Акио Ютсука, Клэйтон Уотсон, Памела Адлон, Хеди Барресс, Терренс «Т.К.» Карсон, Мелинда Кларк, Оливия д’Або, Дэйн А. Дэвис, Уильям Р. Дин, Джон ДеМита
Сюжет фильма:
Добро пожаловать в «Аниматрицу» — визуальную феерию изумительной компьютерной графики и японского «аниме»! Вам предстоит увидеть девять поразительных картин от всемирно известных мастеров «аниме». Вас ждет приквел «Матрицы», где Вы узнаете предысторию возникновения нового иллюзорного мира, побываете в последних городах рода человеческого, а также станете свидетелями глобальной войны людей с машинами, войны, которая закончилась гибелью цивилизации.

Насладитесь «Последним полетом Осириса», который стал основой блокбастера «Матрица: Перезагрузка» и видеоигры «Войди в Матрицу». У Вас появилась уникальная возможность проникнуть в историческую эпоху, закончившуюся созданием новой синтетической эры «Матрицы». Подключайтесь!

Качество видео: BDRip 720p

Продолжительность: 01:40:50
Формат: mkv
Видео: x264, 1280x536, 3860 kbps
Аудио #1: русский, двухголосый закадровый [профессиональный (с DVD "С.Р.И.", озвучание - П. Гланц&И. Королёва)], AC3 5.1, 448 kbps
Аудио #2: русский, дублированный (с DVD R5), AC3 5.1, 384 kbps
Аудио #3: русский, многоголосый закадровый [профессиональный], AC3 5.1, 384 kbps
Аудио #4: английский, AC3 5.1, 640 kbps
Аудио #5: японский, AC3 5.1, 640 kbps
Субтитры #1: вшитые отключаемые, S_TEXT/UTF8, русский
Субтитры #2: вшитые отключаемые, S_TEXT/UTF8, английский

Код:

General
Complete name                    : F:\Видео\Фильмы\The.Animatrix.BDRip.720p.DXVA.mkv
Format                           : Matroska
File size                        : 4.57 GiB
Duration                         : 1h 40mn
Overall bit rate                 : 6 486 Kbps
Movie name                       : The.Animatrix.BDRip.720p.DXVA
Encoded date                     : UTC 2010-09-14 06:09:25
Writing application              : mkvmerge v4.2.0 ('No Talking') built on Jul 28 2010 18:38:23
Writing library                  : libebml v1.0.0 + libmatroska v1.0.0

Video
ID                               : 1
Format                           : AVC
Format/Info                      : Advanced Video Codec
Format profile                   : High@L4.1
Format settings, CABAC           : Yes
Format settings, ReFrames        : 8 frames
Muxing mode                      : Container profile=Unknown@4.1
Codec ID                         : V_MPEG4/ISO/AVC
Duration                         : 1h 40mn
Bit rate                         : 3 861 Kbps
Width                            : 1 280 pixels
Height                           : 536 pixels
Display aspect ratio             : 2.35
Frame rate                       : 23.976 fps
Resolution                       : 24 bits
Colorimetry                      : 4:2:0
Scan type                        : Progressive
Bits/(Pixel*Frame)               : 0.235
Stream size                      : 2.72 GiB (59%)
Writing library                  : x264 core 104 r1713 c276662
Encoding settings                : cabac=1 / ref=8 / deblock=1:-2:-1 / analyse=0x3:0x113 / me=umh / subme=10 / psy=1 / psy_rd=0.80:0.10 / mixed_ref=1 / me_range=32 / chroma_me=1 / trellis=2 / 8x8dct=1 / cqm=0 / deadzone=21,11 / fast_pskip=0 / chroma_qp_offset=-3 / threads=6 / sliced_threads=0 / nr=0 / decimate=1 / interlaced=0 / constrained_intra=0 / bframes=12 / b_pyramid=2 / b_adapt=2 / b_bias=0 / direct=1 / weightb=1 / open_gop=0 / weightp=2 / keyint=250 / keyint_min=23 / scenecut=40 / intra_refresh=0 / rc_lookahead=40 / rc=crf / mbtree=0 / crf=17.0 / qcomp=0.80 / qpmin=10 / qpmax=51 / qpstep=4 / vbv_maxrate=14500 / vbv_bufsize=14000 / crf_max=0.0 / ip_ratio=1.40 / pb_ratio=1.30 / aq=2:0.70 / zones=133791,145065,q=30 / nal_hrd=none
Language                         : Japanese

Audio #1
ID                               : 2
Format                           : AC-3
Format/Info                      : Audio Coding 3
Codec ID                         : A_AC3
Duration                         : 1h 40mn
Bit rate mode                    : Constant
Bit rate                         : 448 Kbps
Channel(s)                       : 6 channels
Channel positions                : Front: L C R, Surround: L R, LFE
Sampling rate                    : 48.0 KHz
Stream size                      : 323 MiB (7%)
Title                            : Russian DVO (DVD S.R.I.)
Language                         : Russian

Audio #2
ID                               : 3
Format                           : AC-3
Format/Info                      : Audio Coding 3
Codec ID                         : A_AC3
Duration                         : 1h 40mn
Bit rate mode                    : Constant
Bit rate                         : 384 Kbps
Channel(s)                       : 6 channels
Channel positions                : Front: L C R, Surround: L R, LFE
Sampling rate                    : 48.0 KHz
Stream size                      : 277 MiB (6%)
Title                            : Russian Dub (R5)
Language                         : Russian

Audio #3
ID                               : 4
Format                           : AC-3
Format/Info                      : Audio Coding 3
Codec ID                         : A_AC3
Duration                         : 1h 40mn
Bit rate mode                    : Constant
Bit rate                         : 384 Kbps
Channel(s)                       : 6 channels
Channel positions                : Front: L C R, Surround: L R, LFE
Sampling rate                    : 48.0 KHz
Stream size                      : 277 MiB (6%)
Title                            : Russian MVO
Language                         : Russian

Audio #4
ID                               : 5
Format                           : AC-3
Format/Info                      : Audio Coding 3
Codec ID                         : A_AC3
Duration                         : 1h 40mn
Bit rate mode                    : Constant
Bit rate                         : 640 Kbps
Channel(s)                       : 6 channels
Channel positions                : Front: L C R, Surround: L R, LFE
Sampling rate                    : 48.0 KHz
Stream size                      : 462 MiB (10%)
Title                            : English

Audio #5
ID                               : 6
Format                           : AC-3
Format/Info                      : Audio Coding 3
Codec ID                         : A_AC3
Duration                         : 1h 40mn
Bit rate mode                    : Constant
Bit rate                         : 640 Kbps
Channel(s)                       : 6 channels
Channel positions                : Front: L C R, Surround: L R, LFE
Sampling rate                    : 48.0 KHz
Stream size                      : 462 MiB (10%)
Title                            : Japanese
Language                         : Japanese

Text #1
ID                               : 7
Format                           : UTF-8
Codec ID                         : S_TEXT/UTF8
Codec ID/Info                    : UTF-8 Plain Text
Title                            : Russian
Language                         : Russian

Text #2
ID                               : 8
Format                           : UTF-8
Codec ID                         : S_TEXT/UTF8
Codec ID/Info                    : UTF-8 Plain Text
Title                            : English

Menu
00:00:00.000                     : en:Последний полет Осириса
00:09:34.031                     : ru:Второе возрождение. Часть I
00:18:48.877                     : ru:Второе возрождение. Часть II
00:28:11.981                     : ru:История одного парня
00:37:50.601                     : ru:Программа
00:45:06.161                     : ru:Мировой рекодр
00:53:49.976                     : ru:По ту сторону
01:06:53.717                     : ru:Детектив
01:16:44.349                     : ru:Матрикулированный
01:33:01.701                     : ru:Финальные титры


pic pic pic pic pic
Для увеличения картинки щелкните мышкой по превью

Этот торрент недоступен для скачивания без регистрации, однако доступен по публичной magnet-ссылке (источники с публичных трекеров). Перед использованием ссылки прочтите, пожалуйста Пользовательское соглашение, а также как можно дольше оставайтесь на раздаче! Для того, чтобы скачать сам торрент-файл (который видит больше источников), а также для того, чтобы поблагодарить релизера, вам необходимо зарегистрироваться. Если регистрироваться лень - вы можете также попробовать скачать релиз по нашим партнерским ссылкам ниже.

[underverse.su].t25101.torrent
Трекер: Зарегистрирован   [ 17.03.2013 06:36 ]  

Статус: проверено (by Jimmy at 17.03.2013 07:33)
Поблагодарили: 1 человек
Тип торрента: публичный - доступные источники с открытых трекеров: 
Размер: 4,57 GB (занимает 1,04 DVDR, для записи нужно 2 болванки DVDR/RW)
 
 
Похожие темы
Форум Тема Автор Торрент Отв. Посл. сооб.
Аниме Аниматрица / Animatrix | BDRip (Питер Чанг, Энди Джонс, Маэда Махиро) [2003 г., фантастика, анимация, BDRip] kostyan007
0 | 0

6 | 1783

7

21.12.2011 22:25


Яндекс.Метрика powered by Sphinx


В Н И М А Н И Е
Сайт не распространяет и не хранит электронные версии произведений, а лишь бесплатно и без коммерческой выгоды (не требуя взамен платы,
SMS и т.д.) предоставляет доступ к создаваемому пользователями каталогу ссылок на торрент-файлы, которые содержат только списки хеш-сумм.
Убедительная просьба с жалобами обращаться напрямую к пользователю, разместившему торрент файл.

Вверх