Loading...
Error

Анна Каренина / Anna Karenina (Джо Райт / Joe Wright) [2012 г., драма, мелодрама, BDRip] Dub

Статистика раздачи
Размер:  1,46 GB   |    Зарегистрирован:  3 года 8 месяцев   |    Скачан:  23 раза

Полного источника не было: 5 месяцев 8 дней

Сидов:  0  |  0 KB/s  ]   Личеров:  0  |  0 KB/s  ]

* - сиды/пиры с внешних источников

   
 
Автор Сообщение

Gaarochi Пол:Муж

16-Мар-2013 23:00

Анна Каренина / Anna Karenina


Год выпуска: 2012
Жанр: драма, мелодрама
Страна: Великобритания
Режиссер: Джо Райт / Joe Wright
В ролях: Кира Найтли, Джуд Лоу, Аарон Тейлор-Джонсон, Келли Макдоналд, Мэтью Макфейден, Домналл Глисон, Рут Уилсон, Алисия Викандер, Оливия Уильямс, Эмили Уотсон.
Сюжет фильма:
Встречая приехавшую из Петербурга мать, молодой блистательный офицер граф Вронский знакомится с женой влиятельного петербургского чиновника Анной Карениной. Огонь страсти вспыхивает мгновенно, но их любовь шокирует высшее общество. В мире, где правят предрассудки и стереотипы, ей придётся сделать поистине непростой выбор между семьёй и всепоглощающей страстью…

  • Мировая премьера: 7 сентября 2012
  • Российская премьера: 10 января 2013


Качество видео: BDRip

Продолжительность: 02:09:32
Формат: AVI
Видео: XviD, 720x304, ~1416 kbps avg
Аудио: русский, дублированный [лицензия], AC3 2.0, 192 kbps avg

Код:

General
 Complete name : D\Anna.Karenina.2012.Dub.BDRip.1,46Gb.XviD.AC3.avi
 Format : AVI
 Format/Info : Audio Video Interleave
 File size : 1.46 GiB
 Duration : 2h 9mn
 Overall bit rate : 1 617 Kbps
 Writing application : VirtualDubMod 1.5.10.3 | www.virtualdub-fr.org || (build 2550/release)
 Writing library : VirtualDubMod build 2550/release

Video
 ID : 0
 Format : MPEG-4 Visual
 Format profile : Advanced Simple@L5
 Format settings, BVOP : 1
 Format settings, QPel : No
 Format settings, GMC : No warppoints
 Format settings, Matrix : Custom
 Codec ID : XVID
 Codec ID/Hint : XviD
 Duration : 2h 9mn
 Bit rate : 1 416 Kbps
 Width : 720 pixels
 Height : 304 pixels
 Display aspect ratio : 2.35:1
 Frame rate : 23.976 fps
 Color space : YUV
 Chroma subsampling : 4:2:0
 Bit depth : 8 bits
 Scan type : Progressive
 Compression mode : Lossy
 Bits/(Pixel*Frame) : 0.270
 Stream size : 1.28 GiB (88%)
 Writing library : XviD 65

Audio
 ID : 1
 Format : AC-3
 Format/Info : Audio Coding 3
 Mode extension : CM (complete main)
 Format settings, Endianness : Big
 Codec ID : 2000
 Duration : 2h 9mn
 Bit rate mode : Constant
 Bit rate : 192 Kbps
 Channel(s) : 2 channels
 Channel positions : Front: L R
 Sampling rate : 48.0 KHz
 Bit depth : 16 bits
 Compression mode : Lossy
 Stream size : 178 MiB (12%)
 Alignment : Split accross interleaves
 Interleave, duration : 42 ms (1.00 video frame)
 Interleave, preload duration : 500 ms
Семпл: http://multi-up.com/829113

picpicpicpic
Для увеличения картинки щелкните мышкой по превью

Этот торрент недоступен для скачивания без регистрации, однако доступен по публичной magnet-ссылке (источники с публичных трекеров). Перед использованием ссылки прочтите, пожалуйста Пользовательское соглашение, а также как можно дольше оставайтесь на раздаче! Для того, чтобы скачать сам торрент-файл (который видит больше источников), а также для того, чтобы поблагодарить релизера, вам необходимо зарегистрироваться. Если регистрироваться лень - вы можете также попробовать скачать релиз по нашим партнерским ссылкам ниже.

[underverse.su].t25098.torrent
Трекер: Зарегистрирован   [ 16.03.2013 23:00 ]  

Статус: проверено (by Чертёнок at 17.03.2013 00:10)
Поблагодарили: 1 человек
Тип торрента: публичный - доступные источники с открытых трекеров: 
Размер: 1,46 GB (занимает 0,33 DVDR, для записи нужно 1 болванка DVDR/RW)
 
 
Похожие темы
Форум Тема Автор Торрент Отв. Посл. сооб.
Зарубежное кино [DVDRip, Low-Res HDRip, и т.д.] Анна Каренина / Anna Karenina (Джо Райт) [2012 г., драма, экранизация, BDRip] Dub Чертёнок
22 | 2

2 | 691

108

05.02.2013 18:13

Зарубежное кино [DVDRip, Low-Res HDRip, и т.д.] Анна Каренина / Anna Karenina (Джо Райт / Joe Wright) [2012 г., драма, мелодрама, BDRip] Dub Печаль'ka
0 | 0

0 | 403

13

27.04.2013 14:28

Зарубежное кино [DVDRip, Low-Res HDRip, и т.д.] Анна Каренина / Anna Karenina (Кристиан Дагуэй) [2013 г., драма, мелодрама, HDTVRip] VO (PashaUp) + hardsub (Rus) 90ytr90
4 | 0

0 | 390

0

18.03.2016 19:52

Чертёнок Пол:Муж

17-Мар-2013 00:08

Выкогда вставляете название фильма в окно не надо писать вот это [2012, Великобритания, драма, мелодрама, BDRip]

Gaarochi Пол:Муж

17-Мар-2013 09:23

Чертёнок писал(а):

Выкогда вставляете название фильма в окно не надо писать вот это [2012, Великобритания, драма, мелодрама, BDRip]
Ясно!

Яндекс.Метрика powered by Sphinx


В Н И М А Н И Е
Сайт не распространяет и не хранит электронные версии произведений, а лишь бесплатно и без коммерческой выгоды (не требуя взамен платы,
SMS и т.д.) предоставляет доступ к создаваемому пользователями каталогу ссылок на торрент-файлы, которые содержат только списки хеш-сумм.
Убедительная просьба с жалобами обращаться напрямую к пользователю, разместившему торрент файл.

Вверх