Loading...
Error

Вероника. Потерянное счастье / Серии: 1-16 (16) (Мирослав Малич) [2012, Мелодрама, SATRip]

 
Автор Сообщение

nemos Пол:Муж

15-Мар-2013 16:33

Вероника. Потерянное счастье


Год выпуска: 2012
Жанр: мелодрама
Страна: Россия
Режиссер: Мирослав Малич
В ролях: Александр Дьяченко, Наталья Бардо, Сергей Жигунов, Мария Машкова, Владимир Носик, Ольга Волкова, Анатолий Журавлев, Дмитрий Лабуш, Амаду Мамадаков, Ирина Ефремова
Сюжет фильма:
Вероника Серова — дочь талантливого ученого и первая красавица небольшого провинциального городка Зеленогорска. Много лет девушка росла без печали и забот, соседские мальчишки наперебой сражались за ее внимание и любовь, и все прочили гордой красавице счастливое будущее. Но трагическое событие переворачивает судьбу Вероники. Внезапно она остается один на один с суровой взрослой жизнью. В паутине интриг, обмана и предательства ей придется научиться справляться с трудностями, переживать потери и бороться за себя и свою любовь…


Качество видео: SatRip

Продолжительность: 00:46:51 серия
Формат: AVI
Видео: XviD, 720 x 400, 1 600 kbps
Аудио: русский, MP3 2.0, 128 kbps

Код:

E:\С underverse-3 Фильмы\Вероника. Потерянное счастье.2012.SATRip\Вероника. Потерянное счастье.16.2012.SATRip.avi
   General
      Complete name : E:\С underverse-3 Фильмы\Вероника. Потерянное счастье.2012.SATRip\Вероника. Потерянное счастье.16.2012.SATRip.avi
      Format : AVI
      Format/Info : Audio Video Interleave
      File size : 582 MiB
      Duration : 46mn 51s
      Overall bit rate : 1 738 Kbps
      Writing application : Lavf52.61.0
      Writing library : VirtualDub-MPEG2 build 24600/release
   Video #0
      ID : 0
      Format : MPEG-4 Visual
      Format profile : Simple@L3
      Format settings, BVOP : No
      Format settings, QPel : No
      Format settings, GMC : No warppoints
      Format settings, Matrix : Default (H.263)
      Codec ID : XVID
      Codec ID/Hint : XviD
      Duration : 46mn 51s
      Bit rate : 1 600 Kbps
      Width : 720 pixels
      Height : 400 pixels
      Display aspect ratio : 16:9
      Frame rate : 25.000 fps
      Color space : YUV
      Chroma subsampling : 4:2:0
      Bit depth : 8 bits
      Scan type : Progressive
      Compression mode : Lossy
      Bits/(Pixel*Frame) : 0.222
      Stream size : 536 MiB (92%)
      Writing library : XviD 63
   Audio #1
      ID : 1
      Format : MPEG Audio
      Format version : Version 1
      Format profile : Layer 3
      Mode : Joint stereo
      Mode extension : MS Stereo
      Codec ID : 55
      Codec ID/Hint : MP3
      Duration : 46mn 51s
      Bit rate mode : Constant
      Bit rate : 128 Kbps
      Channel(s) : 2 channels
      Sampling rate : 44.1 KHz
      Compression mode : Lossy
      Stream size : 42.9 MiB (7%)
      Alignment : Split accross interleaves
      Interleave, duration : 40 ms (1.00 video frame)
      Interleave, preload duration : 500 ms
      Writing library : LAME3.99ЄЄЄЄЄЄЄЄЄЄЄЄ
Семпл: http://multi-up.com/843205

picpicpicpicpicpicpicpicpicpicpicpicpicpic
Для увеличения картинки щелкните мышкой по превью
Сериал который был выложен и зарегистрирован более двух месяцев назад буду раздавать с 23.00ч до 06.00ч утра ( вина в этом немоя, а пользователей которые неподдерживают раздачу)
Download Для того, чтобы скачать этот торрент, необходимо залогиниться! Если у Вас нет логина на нашем трекере - зарегистрируйтесь, и он у Вас будет.

Как качать с торрент трекера  ·   Что такое torrent (торрент)  ·   Рейтинг и ограничения

 
Похожие темы
Форум Тема Автор Торрент Отв. Посл. сооб.
xUSSR сериалы Вероника. Беглянка / Серии: 1-16 (16) (Андрей Селиванов) [2013, Мелодрама, SATRip] nemos
0 | 1

0 | 986

9

15.03.2013 16:09


Яндекс.Метрика powered by Sphinx


В Н И М А Н И Е
Сайт не распространяет и не хранит электронные версии произведений, а лишь бесплатно и без коммерческой выгоды (не требуя взамен платы,
SMS и т.д.) предоставляет доступ к создаваемому пользователями каталогу ссылок на торрент-файлы, которые содержат только списки хеш-сумм.
Убедительная просьба с жалобами обращаться напрямую к пользователю, разместившему торрент файл.

Вверх