Loading...
Error

Вероника. Беглянка / Серии: 1-16 (16) (Андрей Селиванов) [2013, Мелодрама, SATRip]

Статистика раздачи
Размер:  8,52 GB   |    Зарегистрирован:  3 года 8 месяцев   |    Скачан:  9 раз

Полного источника не было: 1 год 2 месяца

Сидов:  0  |  0 KB/s  ]   Личеров:  0  |  0 KB/s  ]

* - сиды/пиры с внешних источников

   
 
Автор Сообщение

nemos Пол:Муж

15-Мар-2013 16:09

Вероника. Беглянка


Год выпуска: 2013
Жанр: Мелодрама
Страна: Россия
Режиссер: Андрей Селиванов
В ролях: Наталья Бардо, Александр Дьяченко, Сергей Жигунов, Амаду Мамадаков, Сергей Астахов, Олег Алмазов, Игорь Седов, Денис Бургазлиев, Михаил Слесарев, Екатерина Данилова (II), Алина Кизиярова, Шухрат Иргашев, Гурам Баблишвили, Анна Литкенс, Александр Макаров, Николай Аверюшкин, Денис Сердюков, Венчислав Хотяновский, Юрий Грубник, Ольга Волкова, Мария Машкова, Дарья Чаруша, Владимир Шульга, Борис Клюев
Сюжет фильма:
Когда теряешь своих близких, то кажется, что весь мир рушится вокруг тебя. Так и у нашей героини - Вероники. Смерть мужа не только подкосила её, но и оставила один на один со всеми проблемами, главной из которых-бандиты. Отец Вероники был выдающимся учёным, которой оставил после себя научное открытие которому нет цены. Вся дилемма в том, что им не нужна сама девушка, им нужно это открытие. Рискуя своей жизнью девушка видит один выход из ситуации-это передать всё записи отца его ученику, который проживает в Польше. Она понимает что самолет и поезд для поездки невозможны, так как ее легко могут найти. Вероника знакомиться с дальнобойщиком, возящего через границу мебель и уезжает в Краков с ним в его фургоне. Однако невозможно всё просчитать фортуна напрочь отвернулась. непредвиденный случай заставляет девушку менять свою цель и теперь уже спасать свою жизнь но самое обидное, что был похищен блокнот отца со всеми записями. Насколько хватит у Вероники сил и мужества найти верный путь и правильное решение.


Качество видео: SatRip

Продолжительность: 00:44:39серия
Формат: AVI
Видео: DivX, 704х400, 1 599kbps
Аудио: русский, MP3 2.0, 128 kbps

Код:

E:\С underverse-3 Фильмы\Вероника. Беглянка\Вероника. Беглянка_16.avi
   General
      Complete name : E:\С underverse-3 Фильмы\Вероника. Беглянка\Вероника. Беглянка_16.avi
      Format : AVI
      Format/Info : Audio Video Interleave
      File size : 555 MiB
      Duration : 44mn 39s
      Overall bit rate : 1 737 Kbps
      Writing library : VirtualDub build 32507/release
   Video #0
      ID : 0
      Format : MPEG-4 Visual
      Format profile : Simple@L3
      Format settings, BVOP : No
      Format settings, QPel : No
      Format settings, GMC : No warppoints
      Format settings, Matrix : Default (H.263)
      Codec ID : DX50
      Codec ID/Hint : DivX 5
      Duration : 44mn 39s
      Bit rate : 1 599 Kbps
      Width : 704 pixels
      Height : 400 pixels
      Display aspect ratio : 16:9
      Frame rate : 25.000 fps
      Color space : YUV
      Chroma subsampling : 4:2:0
      Bit depth : 8 bits
      Scan type : Progressive
      Compression mode : Lossy
      Bits/(Pixel*Frame) : 0.227
      Stream size : 511 MiB (92%)
      Writing library : XviD 1.2.1 (UTC 2008-12-04)
   Audio #1
      ID : 1
      Format : MPEG Audio
      Format version : Version 1
      Format profile : Layer 3
      Mode : Joint stereo
      Mode extension : MS Stereo
      Codec ID : 55
      Codec ID/Hint : MP3
      Duration : 44mn 39s
      Bit rate mode : Constant
      Bit rate : 128 Kbps
      Channel(s) : 2 channels
      Sampling rate : 48.0 KHz
      Compression mode : Lossy
      Stream size : 40.9 MiB (7%)
      Alignment : Split accross interleaves
      Interleave, duration : 40 ms (1.00 video frame)
      Interleave, preload duration : 500 ms
      Writing library : LAME3.98.2
Семпл: http://multi-up.com/843193

picpicpicpicpicpicpicpicpicpicpicpic
Для увеличения картинки щелкните мышкой по превью
Сериал который был выложен и зарегистрирован более двух месяцев назад буду раздавать с 23.00ч до 06.00ч утра ( вина в этом немоя, а пользователей которые неподдерживают раздачу)

Этот торрент недоступен для скачивания без регистрации, однако доступен по публичной magnet-ссылке (источники с публичных трекеров). Перед использованием ссылки прочтите, пожалуйста Пользовательское соглашение, а также как можно дольше оставайтесь на раздаче! Для того, чтобы скачать сам торрент-файл (который видит больше источников), а также для того, чтобы поблагодарить релизера, вам необходимо зарегистрироваться. Если регистрироваться лень - вы можете также попробовать скачать релиз по нашим партнерским ссылкам ниже.

[underverse.su].t25055.torrent
Трекер: Зарегистрирован   [ 15.03.2013 16:10 ]  

Статус: проверено (by Чертёнок at 15.03.2013 16:29)
Поблагодарили: пока никто не поблагодарил...
Тип торрента: публичный - доступные источники с открытых трекеров: 
Размер: 8,52 GB (занимает 1,95 DVDR, для записи нужно 2 болванки DVDR/RW)
 
 
Похожие темы
Форум Тема Автор Торрент Отв. Посл. сооб.
xUSSR сериалы Вероника. Потерянное счастье / Серии: 1-16 (16) (Мирослав Малич) [2012, Мелодрама, SATRip] nemos
0 | 0

0 | 885

0

15.03.2013 16:33


Яндекс.Метрика powered by Sphinx


В Н И М А Н И Е
Сайт не распространяет и не хранит электронные версии произведений, а лишь бесплатно и без коммерческой выгоды (не требуя взамен платы,
SMS и т.д.) предоставляет доступ к создаваемому пользователями каталогу ссылок на торрент-файлы, которые содержат только списки хеш-сумм.
Убедительная просьба с жалобами обращаться напрямую к пользователю, разместившему торрент файл.

Вверх