Loading...
Error

Сваты 6 / Серии: 1-16 (16) (Андрей Яковлев) [2013, комедия, SATRip]

Статистика раздачи
Размер:  7,82 GB   |    Зарегистрирован:  3 года 8 месяцев   |    Скачан:  85 раз

Полного источника не было: 7 дней

Сидов:  0  |  0 KB/s  ]   Личеров:  0  |  0 KB/s  ]

* - сиды/пиры с внешних источников

   
 
Автор Сообщение

nemos Пол:Муж

14-Мар-2013 19:09


Год выпуска: 2013
Жанр: комедия
Страна: Украина
Режиссер: Андрей Яковлев
В ролях: Фёдор Добронравов, Татьяна Кравченко, Людмила Артемьева, Анна Кошмал, Александр Феклистов, Анна Полищук, Костя Чернокрылюк, Олеся Железняк, Николай Добрынин, Владимир Зельдин, Ольга Аросева, Даниил Белых, Инна Королёва, Эммануил Виторган, Елена Сафонова, Роман Лукьянов, Евгений Капорин, Фёдор Гуринец, Алексей Смолка, Денис Шепотинник, Татьяна Васильева, Мария Кочур, Екатерина Варченко
Женя Ковалева (Анна Кошмал) перестала быть готом и теперь у нее новые страдания - мальчики почти не обращают на нее внимания. Она плачет в подушку днями и ночами, а родители Евгении не знают, что делать. Близнецы снова проказничают и не дают родителям спокойно жить, постоянно достают страдающую старшую сестру. Когда бабушки и дедушка интересуются жизнью своих внуков и детей, родители вновь стараются скрыть все невзгоды их семьи, но это сделать не получается, ибо сваты чувствуют нечто неладное и приезжают к Маше(Инна Королёва) и Максиму(Даниил Белых). Конечно, они не могут оставить всё происходящее без дела и берутся за перевоспитание и усмирение близнецов Ковалевых, а также помогают Женечке решить ее проблему. Близится лето. Все едут в Кучугуры. Там у них снова много приключений, в их жизнь вписывается Лариса(Олеся Железняк) с Митяем(Николай Добрынин), у которых появилась... двойня. Однако за лето, не решив много проблем, сваты с чувством неудачи возвращают детей домой. Спустя несколько месяцев наступают новогодние каникулы. Родители улетают в Испанию, а своих детей отправляют... неизвестно кому, то ли Берковичу (Александр Феклистов) и Ольге Николаевне (Людмила Артемьева), то ли Валюхе (Татьяна Кравченко) с Иваном (Федор Добронравов)... Сваты не могут решить, у кого будет внучка, вследствие чего Оля с Берковичем на время зимних каникул перебираются к Валюхе с Иваном. Внезапно приезжают родители сватов, и они вместе проходят ряд очередных приключений и встречают новый год. Близнецы становятся послушными, а Женя встречает Кирилла (Денис Шепотинник)и её и "Сватов" ждут новые смешные истории.


Качество видео: SatRip

Продолжительность: 00:47:35серия
Формат: AVI
Видео: XviD, 720х400, 1 267kbps
Аудио: русский, MP3 2.0, 192 kbps

Код:

E:\С underverse-3 Фильмы\Svati-6.2013.SATRip\Swati-6.(16.serij.iz.16).2013.XviD.SATRip.avi
   General
      Complete name : E:\С underverse-3 Фильмы\Svati-6.2013.SATRip\Swati-6.(16.serij.iz.16).2013.XviD.SATRip.avi
      Format : AVI
      Format/Info : Audio Video Interleave
      File size : 500 MiB
      Duration : 47mn 35s
      Overall bit rate : 1 469 Kbps
      Writing application : VirtualDubMod 1.5.10.2 (build 2540/release)
      Writing library : VirtualDubMod build 2540/release
   Video #0
      ID : 0
      Format : MPEG-4 Visual
      Format profile : Simple@L3
      Format settings, BVOP : No
      Format settings, QPel : No
      Format settings, GMC : No warppoints
      Format settings, Matrix : Default (H.263)
      Codec ID : XVID
      Codec ID/Hint : XviD
      Duration : 47mn 35s
      Bit rate : 1 267 Kbps
      Width : 720 pixels
      Height : 400 pixels
      Display aspect ratio : 16:9
      Frame rate : 25.000 fps
      Color space : YUV
      Chroma subsampling : 4:2:0
      Bit depth : 8 bits
      Scan type : Progressive
      Compression mode : Lossy
      Bits/(Pixel*Frame) : 0.176
      Stream size : 431 MiB (86%)
      Writing library : XviD 1.1.2 (UTC 2006-11-01)
   Audio #1
      ID : 1
      Format : MPEG Audio
      Format version : Version 1
      Format profile : Layer 3
      Mode : Joint stereo
      Mode extension : MS Stereo
      Codec ID : 55
      Codec ID/Hint : MP3
      Duration : 47mn 35s
      Bit rate mode : Constant
      Bit rate : 192 Kbps
      Channel(s) : 2 channels
      Sampling rate : 48.0 KHz
      Compression mode : Lossy
      Stream size : 65.3 MiB (13%)
      Alignment : Split accross interleaves
      Interleave, duration : 40 ms (1.00 video frame)
      Interleave, preload duration : 500 ms
      Writing library : LAME3.98
Семпл: http://multi-up.com/842892

picpicpicpicpicpicpicpicpicpicpicpicpic
Для увеличения картинки щелкните мышкой по превью
Сериал который был выложен и зарегистрирован более двух месяцев назад буду раздавать с 23.00ч до 06.00ч утра ( вина в этом немоя, а пользователей которые неподдерживают раздачу)

Этот торрент недоступен для скачивания без регистрации, однако доступен по публичной magnet-ссылке (источники с публичных трекеров). Перед использованием ссылки прочтите, пожалуйста Пользовательское соглашение, а также как можно дольше оставайтесь на раздаче! Для того, чтобы скачать сам торрент-файл (который видит больше источников), а также для того, чтобы поблагодарить релизера, вам необходимо зарегистрироваться. Если регистрироваться лень - вы можете также попробовать скачать релиз по нашим партнерским ссылкам ниже.

[underverse.su].t25320.torrent
Трекер: Зарегистрирован   [ 22.03.2013 19:58 ]  

Статус: проверено (by Чертёнок at 22.03.2013 20:11)
Поблагодарили: 10 человек
Тип торрента: публичный - доступные источники с открытых трекеров: 
Размер: 7,82 GB (занимает 1,79 DVDR, для записи нужно 2 болванки DVDR/RW)
 
 


Последний раз редактировалось: nemos (06.11.2014 11:48), всего редактировалось 13 раз(а)

nemos Пол:Муж

14-Мар-2013 21:21

торрент обновлен(14)


Последний раз редактировалось: nemos (20.03.2013 21:24), всего редактировалось 5 раз(а)

Tub552104 Пол:Муж

16-Мар-2013 13:32

Cпасибо!!!!!!!!! :Yahoo!: :Yahoo!: :Yahoo!:

МИТЯ Пол:Муж

20-Мар-2013 21:27

еще бы в 1080 :oops:

nemos Пол:Муж

21-Мар-2013 20:46

торрент обновлен(16)

brodyga777 Пол:Муж

24-Мар-2013 20:09

спасибо

Яндекс.Метрика powered by Sphinx


В Н И М А Н И Е
Сайт не распространяет и не хранит электронные версии произведений, а лишь бесплатно и без коммерческой выгоды (не требуя взамен платы,
SMS и т.д.) предоставляет доступ к создаваемому пользователями каталогу ссылок на торрент-файлы, которые содержат только списки хеш-сумм.
Убедительная просьба с жалобами обращаться напрямую к пользователю, разместившему торрент файл.

Вверх