Loading...
Error

Жизнь Пи / Life of Pi (Энг Ли) [2012 г., драма, приключения, BDRip] Dub (Rus,Ukr) + Original + Subs (Rus,Eng) HQ Underverse

Статистика раздачи
Размер:  2,19 GB   |    Зарегистрирован:  3 года 8 месяцев   |    Скачан:  98 раз

Полного источника не было: 2 дня

Сидов:  0  |  0 KB/s  ]   Личеров:  0  |  0 KB/s  ]

* - сиды/пиры с внешних источников

   
 
Автор Сообщение

HQ Underverse 

14-Мар-2013 08:16

Жизнь Пи / Life of Pi


Год выпуска: 2012
Жанр: драма, приключения
Страна: США , Тайвань
Режиссер: Энг Ли
В ролях: Сурадж Шарма, Ирфан Кхан, Рейф Сполл, Табу, Адиль Хуссэйн, Жерар Депардье, Аюш Тандон, Гаутам Белур, Аян Кхан, Мохд Аббас Халили
Сюжет фильма:
Главный герой фильма оказывается на шлюпке посреди океана в компании неожиданного попутчика — грозного бенгальского тигра.

  • Мировая премьера: 28 сентября 2012
  • Российская премьера: 1 января 2013, «Двадцатый Век Фокс СНГ» 3D

/
Качество видео: BDRip

Продолжительность: 02:06:59
Формат: avi
Видео: XviD, 720x384, 2067 kbps
Аудио #1: русский, дублированный [лицензия], AC3 5.1, 384 kbps
Аудио #2: английский, оригинал, AC3 5.1, 384 kbps (отдельным файлом)
Аудио #3: украинский, дублированный [лицензия], AC3 5.1, 384 kbps (отдельным файлом)
Субтитры #1: внешние, SRT, английский (FORCED) - здесь
Субтитры #2: внешние, SRT, русский (FORCED) - здесь
Субтитры #3: внешние, SRT, английский - здесь
Субтитры #4: внешние, SRT, русский - здесь

Код:

General
Complete name                    : G:\Жизнь Пи\Life.Of.Pi.2012.BDRip.XviD.AC3.Rus.D.HQ.Underverse.avi
Format                           : AVI
Format/Info                      : Audio Video Interleave
Format profile                   : OpenDML
File size                        : 2.19 GiB
Duration                         : 2h 6mn
Overall bit rate                 : 2 463 Kbps
Writing application              : VirtualDubMod 1.5.10.2 (build 2540/release)
Writing library                  : VirtualDubMod build 2540/release

Video
ID                               : 0
Format                           : MPEG-4 Visual
Format profile                   : Streaming Video@L1
Format settings, BVOP            : Yes
Format settings, QPel            : No
Format settings, GMC             : No warppoints
Format settings, Matrix          : Custom
Muxing mode                      : Packed bitstream
Codec ID                         : XVID
Codec ID/Hint                    : XviD
Duration                         : 2h 6mn
Bit rate                         : 2 067 Kbps
Width                            : 720 pixels
Height                           : 384 pixels
Display aspect ratio             : 1.875
Frame rate                       : 23.976 fps
Resolution                       : 24 bits
Colorimetry                      : 4:2:0
Scan type                        : Progressive
Bits/(Pixel*Frame)               : 0.312
Stream size                      : 1.83 GiB (84%)
Writing library                  : XviD 64

Audio
ID                               : 1
Format                           : AC-3
Format/Info                      : Audio Coding 3
Codec ID                         : 2000
Duration                         : 2h 6mn
Bit rate mode                    : Constant
Bit rate                         : 384 Kbps
Channel(s)                       : 6 channels
Channel positions                : Front: L C R, Surround: L R, LFE
Sampling rate                    : 48.0 KHz
Stream size                      : 349 MiB (16%)
Alignment                        : Split accross interleaves
Interleave, duration             : 42 ms (1.00 video frame)
Interleave, preload duration     : 500 ms

General
Complete name                    : G:\Жизнь Пи\Life.Of.Pi.2012.BDRip.XviD.AC3.Rus.D.HQ.Underverse.ENG.ac3
Format                           : AC-3
Format/Info                      : Audio Coding 3
File size                        : 349 MiB
Duration                         : 2h 6mn
Overall bit rate                 : 384 Kbps

Audio
Format                           : AC-3
Format/Info                      : Audio Coding 3
Duration                         : 2h 6mn
Bit rate mode                    : Constant
Bit rate                         : 384 Kbps
Channel(s)                       : 6 channels
Channel positions                : Front: L C R, Surround: L R, LFE
Sampling rate                    : 48.0 KHz
Stream size                      : 349 MiB (100%)

General
Complete name                    : G:\Жизнь Пи\Life.Of.Pi.2012.BDRip.XviD.AC3.Rus.D.HQ.Underverse.UKR.ac3
Format                           : AC-3
Format/Info                      : Audio Coding 3
File size                        : 349 MiB
Duration                         : 2h 6mn
Overall bit rate                 : 384 Kbps

Audio
Format                           : AC-3
Format/Info                      : Audio Coding 3
Duration                         : 2h 6mn
Bit rate mode                    : Constant
Bit rate                         : 384 Kbps
Channel(s)                       : 6 channels
Channel positions                : Front: L C R, Surround: L R, LFE
Sampling rate                    : 48.0 KHz
Stream size                      : 349 MiB (100%)

Релиз группы:

picpicpic
Для увеличения картинки щелкните мышкой по превью

Этот торрент недоступен для скачивания без регистрации, однако доступен по публичной magnet-ссылке (источники с публичных трекеров). Перед использованием ссылки прочтите, пожалуйста Пользовательское соглашение, а также как можно дольше оставайтесь на раздаче! Для того, чтобы скачать сам торрент-файл (который видит больше источников), а также для того, чтобы поблагодарить релизера, вам необходимо зарегистрироваться. Если регистрироваться лень - вы можете также попробовать скачать релиз по нашим партнерским ссылкам ниже.

[underverse.su].t25010.torrent
Трекер: Зарегистрирован   [ 14.03.2013 08:16 ]  

Статус: проверено (by Паукан at 14.03.2013 10:22)
Поблагодарили: 7 человек
Тип торрента: публичный - доступные источники с открытых трекеров: 
Размер: 2,19 GB (занимает 1/2 DVDR, для записи нужно 1 болванка DVDR/RW)
 
 
Похожие темы
Форум Тема Автор Торрент Отв. Посл. сооб.
Зарубежное кино [DVDRip, Low-Res HDRip, и т.д.] Жизнь Пи / Life of Pi (Энг Ли) [2012 г., Драма, приключения, BDRip] Dub 90ytr90
80 | 0

2 | 784

58

05.05.2013 09:43

Зарубежное кино [DVDRip, Low-Res HDRip, и т.д.] Жизнь Пи / Life of Pi (Энг Ли) [2012 г., Драма, приключения, HDRip] Dub 90ytr90
0 | 0

0 | 538

23

09.03.2013 13:48

Зарубежное кино [DVDRip, Low-Res HDRip, и т.д.] Жизнь Пи / Life of Pi (Энг Ли) [2012 г., Драма, приключения, BDRip] Dub 90ytr90
21 | 1

1 | 1430

81

06.05.2014 16:13

Зарубежное кино [HDDVDRip / BDRip / WEB-DL / HDTV 1080/720р] Жизнь Пи / Life of Pi (Энг Ли) [2012 г., драма, приключения, BDRip 720p] Dub + Ukr + Eng 90ytr90
0 | 0

0 | 514

13

09.03.2013 11:49

Зарубежное кино [HDDVDRip / BDRip / WEB-DL / HDTV 1080/720р] Жизнь Пи / Life of Pi (Энг Ли) [2012 г., драма, приключения, BDRip 1080p] Dub + Ukr + Eng 90ytr90
0 | 0

0 | 570

22

09.03.2013 11:55

Зарубежное кино [HDDVDRip / BDRip / WEB-DL / HDTV 1080/720р] Жизнь Пи / Life of Pi (Энг Ли / Ang Lee) [2012 г., драма, приключения, 3D Video BDRip 1080p] DUB (Rus,Ukr) + Original + Sub (Multi) Печаль'ka
1 | 0

0 | 633

13

20.04.2013 21:05

Зарубежное кино [HDDVDRip / BDRip / WEB-DL / HDTV 1080/720р] Жизнь Пи / Life of Pi (Энг Ли / Ang Lee) [2012 г., драма, приключения, BDRip 1080p] DUB (Rus,Ukr) + Original + Sub (Multi) Печаль'ka
20 | 1

1 | 533

20

20.04.2013 21:53


Яндекс.Метрика powered by Sphinx


В Н И М А Н И Е
Сайт не распространяет и не хранит электронные версии произведений, а лишь бесплатно и без коммерческой выгоды (не требуя взамен платы,
SMS и т.д.) предоставляет доступ к создаваемому пользователями каталогу ссылок на торрент-файлы, которые содержат только списки хеш-сумм.
Убедительная просьба с жалобами обращаться напрямую к пользователю, разместившему торрент файл.

Вверх