Loading...
Error

Учитель в законе 2 / Серии: 1-16 (16) (Александр Мохов) [2010, драма, криминал, SATRip]

Статистика раздачи
Размер:  8,75 GB   |    Зарегистрирован:  3 года 8 месяцев   |    Скачан:  12 раз

Полного источника не было: 2 года

Сидов:  0  |  0 KB/s  ]   Личеров:  0  |  0 KB/s  ]

* - сиды/пиры с внешних источников

   
 
Автор Сообщение

nemos Пол:Муж

13-Мар-2013 18:45

Учитель в законе 2


Год выпуска: 2010
Жанр: драма, криминал
Страна: Россия
Режиссер: Александр Мохов
В ролях: Юрий Беляев, Денис Парамонов, Кристина Бабушкина, Игнат Акрачков, Вячеслав Агашкин, Александр Мохов, Георгий Пицхелаури, Игорь Филиппов, Александр Фисенко, Мария Бушмелева
Сюжет фильма:
Вор в законе Борис Богомолов по кличке «Богомол» к концу жизни стал тяготиться такой уголовной квалификацией. Личный врач Богомола на очередном осмотре сказал, что с его раком мозга он проживёт максимум полгода. После этого Богомол решил покинуть столицу. Друзья сделали ему новый паспорт на имя Бориса Боголюбова и снабдили фальшивым дипломом филолога.

И Богомол уехал в небольшой городок Солнечный, где стал школьным учителем литературы. Однако здесь он обнаруживает, что в школе орудует молодежная банда, которая занимается продажей наркотиков и держит в страхе не только школу, но и весь город. Борис смотрит на все происходящее и решает вступить в смертельную схватку с распространителями наркотиков…



Продолжительность: 01:30 :00 на две серии
Формат: AVI
Видео: XviD, 704x384, 1 587 kbps
Аудио: русский, MP3 2.0, 128 kbps

Код:

E:\С underverse-3 Фильмы\Utchitel-2_[torrents.org]\Utchitel-15-16.avi
   General
      Complete name : E:\С underverse-3 Фильмы\Utchitel-2_[torrents.org]\Utchitel-15-16.avi
      Format : AVI
      Format/Info : Audio Video Interleave
      File size : 1.09 GiB
      Duration : 1h 30mn
      Overall bit rate : 1 724 Kbps
      Writing application : VirtualDubMod 1.5.10.2 (build 2540/release)
      Writing library : VirtualDubMod build 2540/release
   Video #0
      ID : 0
      Format : MPEG-4 Visual
      Format profile : Advanced Simple@L5
      Format settings, BVOP : 2
      Format settings, QPel : No
      Format settings, GMC : No warppoints
      Format settings, Matrix : Default (H.263)
      Muxing mode : Packed bitstream
      Codec ID : XVID
      Codec ID/Hint : XviD
      Duration : 1h 30mn
      Bit rate : 1 587 Kbps
      Width : 704 pixels
      Height : 384 pixels
      Display aspect ratio : 1.85:1
      Frame rate : 25.000 fps
      Color space : YUV
      Chroma subsampling : 4:2:0
      Bit depth : 8 bits
      Scan type : Progressive
      Compression mode : Lossy
      Bits/(Pixel*Frame) : 0.235
      Stream size : 1.01 GiB (92%)
      Writing library : XviD 1.2.1 (UTC 2008-12-04)
   Audio #1
      ID : 1
      Format : MPEG Audio
      Format version : Version 1
      Format profile : Layer 3
      Mode : Joint stereo
      Mode extension : MS Stereo
      Codec ID : 55
      Codec ID/Hint : MP3
      Duration : 1h 30mn
      Bit rate mode : Constant
      Bit rate : 128 Kbps
      Channel(s) : 2 channels
      Sampling rate : 48.0 KHz
      Compression mode : Lossy
      Stream size : 83.1 MiB (7%)
      Alignment : Aligned on interleaves
      Interleave, duration : 40 ms (1.00 video frame)
      Interleave, preload duration : 504 ms
Семпл: http://multi-up.com/842511

picpicpicpicpicpicpicpicpicpicpicpicpicpicpicpicpic
Для увеличения картинки щелкните мышкой по превью
Сериал который был выложен и зарегистрирован более двух месяцев назад буду раздавать с 23.00ч до 06.00ч утра ( вина в этом немоя, а пользователей которые неподдерживают раздачу)

Этот торрент недоступен для скачивания без регистрации, однако доступен по публичной magnet-ссылке (источники с публичных трекеров). Перед использованием ссылки прочтите, пожалуйста Пользовательское соглашение, а также как можно дольше оставайтесь на раздаче! Для того, чтобы скачать сам торрент-файл (который видит больше источников), а также для того, чтобы поблагодарить релизера, вам необходимо зарегистрироваться. Если регистрироваться лень - вы можете также попробовать скачать релиз по нашим партнерским ссылкам ниже.

[underverse.su].t25001.torrent
Трекер: Зарегистрирован   [ 13.03.2013 18:45 ]  

Статус: проверено (by Чертёнок at 13.03.2013 19:04)
Поблагодарили: пока никто не поблагодарил...
Тип торрента: публичный - доступные источники с открытых трекеров: 
Размер: 8,75 GB (занимает 2 DVDR, для записи нужно 2 болванки DVDR/RW)
 
 
Похожие темы
Форум Тема Автор Торрент Отв. Посл. сооб.
Наше кино [DVDRip, Low-Res HDRip, и т.д.] Учитель в законе(Александр Мохов) [2007 г., боевик, DVDRip] nemos
10 | 0

0 | 958

19

13.03.2013 17:55

xUSSR сериалы Учитель в законе 3. Возвращение / Серии: 1-32(32) (Сергей Виноградов, Рустам Уразаев) [2013, боевик, драма, криминал, SATRip] nemos
13 | 5

1 | 1987

17

12.03.2013 19:55


Яндекс.Метрика powered by Sphinx


В Н И М А Н И Е
Сайт не распространяет и не хранит электронные версии произведений, а лишь бесплатно и без коммерческой выгоды (не требуя взамен платы,
SMS и т.д.) предоставляет доступ к создаваемому пользователями каталогу ссылок на торрент-файлы, которые содержат только списки хеш-сумм.
Убедительная просьба с жалобами обращаться напрямую к пользователю, разместившему торрент файл.

Вверх