Loading...
Error

Учитель в законе(Александр Мохов) [2007 г., боевик, DVDRip]

Статистика раздачи
Размер:  1,42 GB   |    Зарегистрирован:  3 года 8 месяцев   |    Скачан:  19 раз

Полного источника не было: 3 месяца 20 дней

Сидов:  0  |  0 KB/s  ]   Личеров:  0  |  0 KB/s  ]

* - сиды/пиры с внешних источников

   
 
Автор Сообщение

nemos Пол:Муж

13-Мар-2013 17:55

Учитель в законе


Год выпуска: 2007
Жанр: боевик
Страна: Россия , Украина
Режиссер: Александр Мохов
В ролях: Юрий Беляев, Наталия Вдовина, Кристина Бабушкина, Леонид Бичевин, Александр Фисенко, Андрей Казаков, Вячеслав Агашкин, Татьяна Мухина, Дарья Калмыкова, Георгий Пицхелаури
Сюжет фильма:
Вор в законе Борис Богомолов не мог и предположить, что ему придется поменять амплуа и расстаться с прошлой жизнью. Хозяйка-судьба решила все за него. Врачи поставили страшный диагноз — рак мозга — и вынесли смертельный приговор. Понимая, что жить ему осталось недолго, Борис покидает столицу и едет в маленький провинциальный городок, где по поддельным документам устраивается учителем литературы в местную школу.


Качество видео: DVDRip

Продолжительность: 01:32:00
Формат: AVI
Видео: XviD, 720x400, 2004 kbps
Аудио: русский, AC3 2.0, 192 kbps

Код:

E:\С underverse-3 Фильмы\Uchitel.v.zakone.2007_[*другой трекер*].avi
   General
      Complete name : E:\С underverse-3 Фильмы\Uchitel.v.zakone.2007_[*другой трекер*].avi
      Format : AVI
      Format/Info : Audio Video Interleave
      File size : 1.42 GiB
      Duration : 1h 32mn
      Overall bit rate : 2 205 Kbps
      Movie name : Учитель в законе
      Director : zim2001
      Writing application : VirtualDubMod 1.5.10.2 (build 2540/release)
      Copyright : *другой трекер*
   Video #0
      ID : 0
      Format : MPEG-4 Visual
      Format profile : Advanced Simple@L5
      Format settings, BVOP : 1
      Format settings, QPel : No
      Format settings, GMC : No warppoints
      Format settings, Matrix : Custom
      Codec ID : XVID
      Codec ID/Hint : XviD
      Duration : 1h 32mn
      Bit rate : 2 004 Kbps
      Width : 720 pixels
      Height : 400 pixels
      Display aspect ratio : 16:9
      Frame rate : 25.000 fps
      Color space : YUV
      Chroma subsampling : 4:2:0
      Bit depth : 8 bits
      Scan type : Progressive
      Compression mode : Lossy
      Bits/(Pixel*Frame) : 0.278
      Stream size : 1.29 GiB (91%)
      Writing library : XviD 1.2.1 (UTC 2008-12-04)
   Audio #1
      ID : 1
      Format : AC-3
      Format/Info : Audio Coding 3
      Mode extension : CM (complete main)
      Format settings, Endianness : Big
      Codec ID : 2000
      Duration : 1h 32mn
      Bit rate mode : Constant
      Bit rate : 192 Kbps
      Channel(s) : 2 channels
      Channel positions : Front: L R
      Sampling rate : 48.0 KHz
      Bit depth : 16 bits
      Compression mode : Lossy
      Delay relative to video : 8ms
      Stream size : 127 MiB (9%)
      Alignment : Split accross interleaves
      Interleave, duration : 40 ms (1.00 video frame)
      Interleave, preload duration : 500 ms
Семпл: http://multi-up.com/842497

picpicpicpicpicpicpicpicpicpic
Для увеличения картинки щелкните мышкой по превью
Сериал который был выложен и зарегистрирован более двух месяцев назад буду раздавать с 23.00ч до 06.00ч утра ( вина в этом немоя, а пользователей которые неподдерживают раздачу)

Этот торрент недоступен для скачивания без регистрации, однако доступен по публичной magnet-ссылке (источники с публичных трекеров). Перед использованием ссылки прочтите, пожалуйста Пользовательское соглашение, а также как можно дольше оставайтесь на раздаче! Для того, чтобы скачать сам торрент-файл (который видит больше источников), а также для того, чтобы поблагодарить релизера, вам необходимо зарегистрироваться. Если регистрироваться лень - вы можете также попробовать скачать релиз по нашим партнерским ссылкам ниже.

[underverse.su].t24999.torrent
Трекер: Зарегистрирован   [ 13.03.2013 17:55 ]  

Статус: проверено (by Чертёнок at 13.03.2013 18:38)
Поблагодарили: 1 человек
Тип торрента: публичный - доступные источники с открытых трекеров: 
Размер: 1,42 GB (занимает 0,33 DVDR, для записи нужно 1 болванка DVDR/RW)
 
 
Похожие темы
Форум Тема Автор Торрент Отв. Посл. сооб.
xUSSR сериалы Учитель в законе 3. Возвращение / Серии: 1-32(32) (Сергей Виноградов, Рустам Уразаев) [2013, боевик, драма, криминал, SATRip] nemos
13 | 5

1 | 1988

17

12.03.2013 19:55

xUSSR сериалы Учитель в законе 2 / Серии: 1-16 (16) (Александр Мохов) [2010, драма, криминал, SATRip] nemos
8 | 1

0 | 896

12

13.03.2013 18:45


Яндекс.Метрика powered by Sphinx


В Н И М А Н И Е
Сайт не распространяет и не хранит электронные версии произведений, а лишь бесплатно и без коммерческой выгоды (не требуя взамен платы,
SMS и т.д.) предоставляет доступ к создаваемому пользователями каталогу ссылок на торрент-файлы, которые содержат только списки хеш-сумм.
Убедительная просьба с жалобами обращаться напрямую к пользователю, разместившему торрент файл.

Вверх