Loading...
Error

Властелин колец: Две сорванные башни / The Lord of the Rings: The Two Towers (Питер Джексон) [2002 г., фэнтези, боевик, драма, приключения, пародия, DVDRip] 2xAVO (Гоблин "Божья искра")

Статистика раздачи
Размер:  2,32 GB   |    Зарегистрирован:  3 года 8 месяцев   |    Скачан:  63 раза

Полного источника не было: 7 часов

Сидов:  0  |  0 KB/s  ]   Личеров:  0  |  0 KB/s  ]

* - сиды/пиры с внешних источников

   
 
Автор Сообщение

garry Пол:Муж

13-Мар-2013 16:35

Властелин колец: Две сорванные башни / The Lord of the Rings: The Two Towers


Год выпуска: 2002
Жанр: фэнтези, боевик, драма, приключения, пародия
Страна: США , Новая Зеландия
Режиссер: Питер Джексон
В ролях: Элайджа Вуд, Шон Эстин, Орландо Блум, Вигго Мортенсен, Иэн МакКеллен, Доминик Монахэн, Миранда Отто, Джон Рис-Дэвис, Энди Серкис, Билли Бойд
Сюжет фильма:
Вторая часть мега-блокбастера "Братва и кольцо"!

Бывший мордовский интеллигент Голый ведёт на свою малую родину носителя зловредного кольца Фёдора Сумкина и его друга Сеню Ганджубаса.

Агроном, Гиви и Логоваз ведут преследование банды педофилов из первой серии.

Сарумян, сын Вассермана и шестёрка Саурона, осуществляет акт агрессии против Незалежной Рохляндии. Перед лицом нависшей опасности сильно пьющий атаман Борис принимает решение всем колхозом спрятаться на даче.

На помощь обороняющимся дачникам подтягиваются Саша Белый со своей бригадой и заградотряд эльфийских стрелков "Белые колготки".

  • Мировая премьера: 5 декабря 2002
  • Российская премьера: 22 января 2003, «Каро-Премьер»

/
Качество видео: DVDRip

Продолжительность: 02:59:30
Формат: AVI
Видео: XviD, 704x288, 1453 kbps
Аудио #1: русский, одноголосый закадровый [авторский, Дмитрий Пучков (Гоблин) "Божья Искра" final #2], AC3 2.0, 192 kbps
Аудио #2: русский, одноголосый закадровый [авторский, Дмитрий Пучков (Гоблин) "Божья Искра" beta #1], AC3 2.0, 192 kbps

Код:

General
 Complete name : D:\Кино, сериалы\Властелин колец - Две сорванные башни.avi
 Format : AVI
 Format/Info : Audio Video Interleave
 File size : 2.32 GiB
 Duration : 2h 59mn
 Overall bit rate : 1 852 Kbps
 Movie name : Две сорванные башни - релиз подготовил NeoGuyver для *другой трекер*
 Writing application : VirtualDubMod 1.5.10.2 (build 2542/release)
 Copyright : Студия "Божья Искра"

Video
 ID : 0
 Format : MPEG-4 Visual
 Codec ID : DIV3
 Codec ID/Hint : DivX 3 Low
 Duration : 2h 59mn
 Bit rate : 1 454 Kbps
 Width : 704 pixels
 Height : 288 pixels
 Display aspect ratio : 2.40:1
 Frame rate : 23.976 fps
 Color space : YUV
 Chroma subsampling : 4:2:0
 Bit depth : 8 bits
 Compression mode : Lossy
 Bits/(Pixel*Frame) : 0.299
 Stream size : 1.82 GiB (78%)

Audio #1
 ID : 1
 Format : AC-3
 Format/Info : Audio Coding 3
 Mode extension : CM (complete main)
 Codec ID : 2000
 Duration : 2h 59mn
 Bit rate mode : Constant
 Bit rate : 192 Kbps
 Channel(s) : 2 channels
 Channel positions : Front: L R
 Sampling rate : 48.0 KHz
 Bit depth : 16 bits
 Compression mode : Lossy
 Stream size : 247 MiB (10%)
 Alignment : Split accross interleaves
 Interleave, duration : 42 ms (1.00 video frame)
 Interleave, preload duration : 500 ms
 Title : Авторский (одноголосый, закадровый) Дмитрий Пучков (Гоблин) "Божья Искра" final #2

Audio #2
 ID : 2
 Format : AC-3
 Format/Info : Audio Coding 3
 Mode extension : CM (complete main)
 Codec ID : 2000
 Duration : 2h 59mn
 Bit rate mode : Constant
 Bit rate : 192 Kbps
 Channel(s) : 2 channels
 Channel positions : Front: L R
 Sampling rate : 48.0 KHz
 Bit depth : 16 bits
 Compression mode : Lossy
 Stream size : 247 MiB (10%)
 Alignment : Split accross interleaves
 Interleave, duration : 42 ms (1.00 video frame)
 Interleave, preload duration : 500 ms
 Title : Авторский (одноголосый, закадровый) Дмитрий Пучков (Гоблин) "Божья Искра" beta #1
Релиз подготовлен: NeoGuyver

picpicpic
Для увеличения картинки щелкните мышкой по превью

Этот торрент недоступен для скачивания без регистрации, однако доступен по публичной magnet-ссылке (источники с публичных трекеров). Перед использованием ссылки прочтите, пожалуйста Пользовательское соглашение, а также как можно дольше оставайтесь на раздаче! Для того, чтобы скачать сам торрент-файл (который видит больше источников), а также для того, чтобы поблагодарить релизера, вам необходимо зарегистрироваться. Если регистрироваться лень - вы можете также попробовать скачать релиз по нашим партнерским ссылкам ниже.

[underverse.su].t24993.torrent
Трекер: Зарегистрирован   [ 13.03.2013 16:35 ]  

Статус: проверено (by garry at 13.03.2013 16:36)
Поблагодарили: 4 человека
Тип торрента: публичный - доступные источники с открытых трекеров: 
Размер: 2,32 GB (занимает 0,53 DVDR, для записи нужно 1 болванка DVDR/RW)
 
 
Похожие темы
Форум Тема Автор Торрент Отв. Посл. сооб.
Зарубежное кино [DVDRip, Low-Res HDRip, и т.д.] Властелин колец: Братва и кольцо (первый вариант перевода Гоблина) (H264) / The Lord of the Rings: The Fellowship of the Ring (Питер Джексон/Дмитрий Пучков) [2001 г., Фэнтэзи/Пародия, DVDRip] Stiff
0 | 0

1 | 3220

20

13.03.2009 20:02

Зарубежное кино [DVDRip, Low-Res HDRip, и т.д.] Властелин колец: Братство кольца / The Lord of the Rings: The Fellowship of the Ring (Питер Джексон / Peter Jackson) [2001 г., фэнтези, приключения, боевик, HDTVRip] GUree
0 | 0

4 | 1582

6

27.07.2009 15:44

Зарубежное кино [DVDRip, Low-Res HDRip, и т.д.] Властелин колец: Две Башни (Режиссёрская версия) / The Lord of the Rings: The Two Towers (Special Extended Edition) (Питер Джексон / Peter Jackson) [2002 г., приключения, фэнтези, боевик, HDTVRip] GUree
0 | 0

0 | 1256

4

02.07.2009 23:49

Зарубежное кино [DVDRip, Low-Res HDRip, и т.д.] Властелин колец: Возвращение Короля / The Lord of the Rings: The Return Of The King (Питер Джексон / Peter Jackson) [2003 г., приключения, фэнтези, боевик, HDTVRip] GUree
0 | 0

2 | 2618

4

11.12.2009 23:32

Зарубежное кино [DVDRip, Low-Res HDRip, и т.д.] Властелин Колец Режиссерская Версия (Трилогия) / The Lord of the Rings Director's Cut (Trilogy) (Питер Джексон) [2001-2003 г., фэнтези, HDTVRip-AVC] M-i-i-i-ke
1 | 0

24 | 7714

76

04.03.2015 12:21

Зарубежное кино [DVDRip, Low-Res HDRip, и т.д.] Властелин колец: Братва и кольцо / The Lord of the Rings: The Fellowship of the Ring (Питер Джексон) [2001 г., фэнтези, боевик, драма, приключения, DVDRip] 3xAVO (Гоблин "Божья искра") garry
1 | 0

2 | 3210

63

28.03.2014 13:49

Зарубежное кино [DVDRip, Low-Res HDRip, и т.д.] Властелин колец: Возвращение Бомжа / The Lord of the Rings: The Return of the King (Питер Джексон) [2003 г., фэнтези, боевик, приключения, пародия, DVDRip] AVO (Гоблин "Божья искра") garry
0 | 0

2 | 1897

55

27.10.2013 16:55

Зарубежное кино [DVDRip, Low-Res HDRip, и т.д.] Властелин любви / The Look of Love (Рейнир Лингдаль / Reynir Lyngdal) [2013 г., драма, комедия, биография, HDRip] Dub 90ytr90
5 | 2

0 | 3199

16

02.09.2013 13:02

Зарубежное кино [DVDRip, Low-Res HDRip, и т.д.] Властелин любви / The Look of Love (Рейнир Лингдаль / Reynir Lyngdal) [2013 г., драма, комедия, биография, HDRip-AVC] Dub 90ytr90
0 | 0

0 | 2366

4

02.09.2013 13:08

Зарубежное кино [HDDVDRip / BDRip / WEB-DL / HDTV 1080/720р] Властелин колец: Кинотрилогия [Ограниченное расширенное издание] / The Lord of the Rings: The Motion Picture Trilogy [Extended Edition] [2001, 2002, 2003 г., боевик, фэнтези, приключения, BDRip 1080p] eXtatik
1 | 0

3 | 2450

34

11.11.2012 20:48


Яндекс.Метрика powered by Sphinx


В Н И М А Н И Е
Сайт не распространяет и не хранит электронные версии произведений, а лишь бесплатно и без коммерческой выгоды (не требуя взамен платы,
SMS и т.д.) предоставляет доступ к создаваемому пользователями каталогу ссылок на торрент-файлы, которые содержат только списки хеш-сумм.
Убедительная просьба с жалобами обращаться напрямую к пользователю, разместившему торрент файл.

Вверх