Loading...
Error

В зоне риска / Серии: 1-16 (16) (Владимир Котт) [2013, боевик, криминал, SATRip]

 
Автор Сообщение

nemos Пол:Муж

12-Мар-2013 21:27

В зоне риска


Год выпуска: 2012
Жанр: криминальный, боевик
Страна: Россия
Режиссер: Владимир Котт
В ролях: Марк Богатырев, Александр Кудинов, Стас Наумов, Сергей Коваленко, Алексей Аникин, Татьяна Плетнева, Владимир Демидов, Эдуард Рябинин, Даниил Кокин, Ян Воробьев
Сюжет фильма:
Оперативнику Сергею Демидову поручают возглавить новую команду. Своенравный Вадим Непогода - отличный оперативник и смельчак, способный в любой ситуации протянуть руку помощи, прикрыть спину. Марина Говорнова - в прошлом профессиональная биатлонистка, мастерски стреляет из многих видов оружия. К тому же выясняется, что у нее - дар переговорщика. "Желторотик" Денис Тавардин отлично разбирается в компьютерах и становится "техническим гением" команды...
В каждой серии группа Демидова получает новое задание и приступает к розыску преступника или преступников, сбежавших из-под стражи. Это убийцы, налетчики, мошенники. Они бегут и из мест заключения, и во время этапа, и из психиатрических клиник, и прямо из зала суда... Команда работает отлично и ловит беглецов. Однако Демидова мучает подозрение, что кто-то в команде "крот" и предатель...


Качество видео: SatRip

Продолжительность: 00:45:01 серия
Формат: AVI
Видео: XviD, 720 x 416, 1415 kbps
Аудио: русский, MP3 2.0, 128 kbps

Код:

E:\С underverse-3 Фильмы\В зоне риска. 2012. SATRip\В зоне риска.01.avi
   General
      Complete name : E:\С underverse-3 Фильмы\В зоне риска. 2012. SATRip\В зоне риска.01.avi
      Format : AVI
      Format/Info : Audio Video Interleave
      File size : 500 MiB
      Duration : 45mn 1s
      Overall bit rate : 1 553 Kbps
      Writing application : VirtualDubMod 1.5.10.2 (build 2540/release)
      Writing library : VirtualDubMod build 2540/release
   Video #0
      ID : 0
      Format : MPEG-4 Visual
      Format profile : Advanced Simple@L5
      Format settings, BVOP : 2
      Format settings, QPel : No
      Format settings, GMC : No warppoints
      Format settings, Matrix : Default (MPEG)
      Codec ID : XVID
      Codec ID/Hint : XviD
      Duration : 45mn 1s
      Bit rate : 1 415 Kbps
      Width : 720 pixels
      Height : 416 pixels
      Display aspect ratio : 1.731
      Frame rate : 25.000 fps
      Color space : YUV
      Chroma subsampling : 4:2:0
      Bit depth : 8 bits
      Scan type : Progressive
      Compression mode : Lossy
      Bits/(Pixel*Frame) : 0.189
      Stream size : 456 MiB (91%)
      Writing library : XviD 65
   Audio #1
      ID : 1
      Format : MPEG Audio
      Format version : Version 1
      Format profile : Layer 3
      Mode : Joint stereo
      Mode extension : MS Stereo
      Codec ID : 55
      Codec ID/Hint : MP3
      Duration : 45mn 1s
      Bit rate mode : Constant
      Bit rate : 128 Kbps
      Channel(s) : 2 channels
      Sampling rate : 48.0 KHz
      Compression mode : Lossy
      Stream size : 41.2 MiB (8%)
      Alignment : Aligned on interleaves
      Interleave, duration : 40 ms (1.00 video frame)
      Interleave, preload duration : 504 ms
Семпл: http://multi-up.com/842222

picpicpicpicpicpicpicpicpicpicpicpicpicpicpicpicpicpicpicpic
Для увеличения картинки щелкните мышкой по превью
Сериал который был выложен и зарегистрирован более двух месяцев назад буду раздавать с 23.00ч до 06.00ч утра ( вина в этом немоя, а пользователей которые неподдерживают раздачу)
Download Для того, чтобы скачать этот торрент, необходимо залогиниться! Если у Вас нет логина на нашем трекере - зарегистрируйтесь, и он у Вас будет.

Как качать с торрент трекера  ·   Что такое torrent (торрент)  ·   Рейтинг и ограничения

 


Последний раз редактировалось: nemos (06.11.2014 12:13), всего редактировалось 9 раз(а)

nemos Пол:Муж

13-Мар-2013 12:44

Обновлен(10)

adminjustin 

23-Мар-2013 05:23

РЕБЯТ,А ФИЛЬМ ТО КЛАССНЫЙ!КАЧАЙТЕ НЕ ПОЖАЛЕЕТЕ!!!Я НО ДРУГОМ ТРЕКЕРЕ ПО СЕРИИ В ДЕНЬ,А ТУТ ВЕСЬ ПАК!!! :Yahoo!:

Яндекс.Метрика powered by Sphinx


В Н И М А Н И Е
Сайт не распространяет и не хранит электронные версии произведений, а лишь бесплатно и без коммерческой выгоды (не требуя взамен платы,
SMS и т.д.) предоставляет доступ к создаваемому пользователями каталогу ссылок на торрент-файлы, которые содержат только списки хеш-сумм.
Убедительная просьба с жалобами обращаться напрямую к пользователю, разместившему торрент файл.

Вверх