Loading...
Error

Роботы / Robots (Крис Уэдж, Карлос Салдана) [2005 г., мультфильм, фантастика, мелодрама, комедия, приключения, семейный, BDRip] Dub + MVO (Ukr) + DVO + Original + Sub (Rus,Eng) HQ Underverse

Статистика раздачи
Размер:  1,45 GB   |    Зарегистрирован:  3 года 8 месяцев   |    Скачан:  35 раз

Полного источника не было: 2 дня

Сидов:  0  |  0 KB/s  ]   Личеров:  0  |  0 KB/s  ]

* - сиды/пиры с внешних источников

   
 
Автор Сообщение

HQ Underverse 

12-Мар-2013 12:54

Роботы / Robots


Год выпуска: 2005
Жанр: мультфильм, фантастика, мелодрама, комедия, приключения, семейный
Страна: США
Режиссер: Крис Уэдж, Карлос Салдана
Роли озвучивали: Юэн МакГрегор, Робин Уильямс, Холли Берри, Мэл Брукс, Джим Бродбент, Пол Джаматти, Дэн Хедайя, Грег Киннер, Стэнли Туччи, Пола Абдул
Сюжет фильма:
Действие фильма разворачивается в мире, населенном исключительно роботами. Как и в мире людей у них есть своя социальная лестница, свои герои и изгои. Молодой гений Родни мечтает сделать мир роботов лучше. А еще ему очень нравится одна молоденькая сексапильная роботша Каппи. Но на пути всех его планов стоит ведущий дизайнер роботов Биг Велд, принадлежащий к тому же сословию, что и Каппи…
/
Качество видео: BDRip [ROBOTS_2005_BD_REMUX_HDCLUB]

Продолжительность: 01:29:47
Формат: avi
Видео: XviD, 720x384, 1921 kbps
Аудио #1: русский, дублированный [лицензия, BD CEE], AC3 5.1, 384 kbps
Аудио #2: русский, двухголосый закадровый [профессиональный, Tycoon], AC3 5.1, 384 kbps (отдельным файлом)
Аудио #3: украинский, многоголосый закадровый [профессиональный, 1+1], AC3 5.1, 384 kbps (отдельным файлом)
Аудио #4: английский, оригинал, AC3 5.1, 384 kbps (отдельным файлом)
Субтитры #1: внешние, SRT, русский
Субтитры #2: внешние, SRT, английский

Код:

General
Complete name                    : D:\Video\Movies\Releases\Robots.2005.BDRip.XviD.AC3.Rus.D.HQ.Underverse.avi
Format                           : AVI
Format/Info                      : Audio Video Interleave
File size                        : 1.45 GiB
Duration                         : 1h 29mn
Overall bit rate                 : 2 315 Kbps
Writing application              : VirtualDubMod 1.5.10.2 (build 2540/release)
Writing library                  : VirtualDubMod build 2540/release

Video
ID                               : 0
Format                           : MPEG-4 Visual
Format profile                   : Streaming Video@L1
Format settings, BVOP            : Yes
Format settings, QPel            : No
Format settings, GMC             : No warppoints
Format settings, Matrix          : Custom
Muxing mode                      : Packed bitstream
Codec ID                         : XVID
Codec ID/Hint                    : XviD
Duration                         : 1h 29mn
Bit rate                         : 1 921 Kbps
Width                            : 720 pixels
Height                           : 384 pixels
Display aspect ratio             : 1.875
Frame rate                       : 23.976 fps
Resolution                       : 24 bits
Colorimetry                      : 4:2:0
Scan type                        : Progressive
Bits/(Pixel*Frame)               : 0.290
Stream size                      : 1.21 GiB (83%)
Writing library                  : XviD 64

Audio
ID                               : 1
Format                           : AC-3
Format/Info                      : Audio Coding 3
Codec ID                         : 2000
Duration                         : 1h 29mn
Bit rate mode                    : Constant
Bit rate                         : 384 Kbps
Channel(s)                       : 6 channels
Channel positions                : Front: L C R, Surround: L R, LFE
Sampling rate                    : 48.0 KHz
Stream size                      : 247 MiB (17%)
Alignment                        : Split accross interleaves
Interleave, duration             : 42 ms (1.00 video frame)
Interleave, preload duration     : 500 ms
Title                            : Robots.2005.Rus.Dub.AC3.5.1.384.kbps.HQ.Underverse.ac3

General
Complete name                    : D:\Video\Movies\Releases\Robots.2005.BDRip.XviD.AC3.Rus.D.HQ.Underverse.Eng.ac3
Format                           : AC-3
Format/Info                      : Audio Coding 3
File size                        : 247 MiB
Duration                         : 1h 29mn
Overall bit rate                 : 384 Kbps

Audio
Format                           : AC-3
Format/Info                      : Audio Coding 3
Duration                         : 1h 29mn
Bit rate mode                    : Constant
Bit rate                         : 384 Kbps
Channel(s)                       : 6 channels
Channel positions                : Front: L C R, Surround: L R, LFE
Sampling rate                    : 48.0 KHz
Stream size                      : 247 MiB (100%)

General
Complete name                    : D:\Video\Movies\Releases\Robots.2005.BDRip.XviD.AC3.Rus.D.HQ.Underverse.Rus.DVO.ac3
Format                           : AC-3
Format/Info                      : Audio Coding 3
File size                        : 247 MiB
Duration                         : 1h 29mn
Overall bit rate                 : 384 Kbps

Audio
Format                           : AC-3
Format/Info                      : Audio Coding 3
Duration                         : 1h 29mn
Bit rate mode                    : Constant
Bit rate                         : 384 Kbps
Channel(s)                       : 6 channels
Channel positions                : Front: L C R, Surround: L R, LFE
Sampling rate                    : 48.0 KHz
Stream size                      : 247 MiB (100%)

General
Complete name                    : D:\Video\Movies\Releases\Robots.2005.BDRip.XviD.AC3.Rus.D.HQ.Underverse.Ukr.ac3
Format                           : AC-3
Format/Info                      : Audio Coding 3
File size                        : 247 MiB
Duration                         : 1h 29mn
Overall bit rate                 : 384 Kbps

Audio
Format                           : AC-3
Format/Info                      : Audio Coding 3
Duration                         : 1h 29mn
Bit rate mode                    : Constant
Bit rate                         : 384 Kbps
Channel(s)                       : 6 channels
Channel positions                : Front: L C R, Surround: L R, LFE
Sampling rate                    : 48.0 KHz
Stream size                      : 247 MiB (100%)

Семпл: http://multi-up.com/842010

Релиз группы:

picpicpic
Для увеличения картинки щелкните мышкой по превью

Этот торрент недоступен для скачивания без регистрации, однако доступен по публичной magnet-ссылке (источники с публичных трекеров). Перед использованием ссылки прочтите, пожалуйста Пользовательское соглашение, а также как можно дольше оставайтесь на раздаче! Для того, чтобы скачать сам торрент-файл (который видит больше источников), а также для того, чтобы поблагодарить релизера, вам необходимо зарегистрироваться. Если регистрироваться лень - вы можете также попробовать скачать релиз по нашим партнерским ссылкам ниже.

[underverse.su].t24955.torrent
Трекер: Зарегистрирован   [ 12.03.2013 12:54 ]  

Статус: проверено (by Паукан at 12.03.2013 13:05)
Поблагодарили: 3 человека
Тип торрента: публичный - доступные источники с открытых трекеров: 
Размер: 1,45 GB (занимает 1/3 DVDR, для записи нужно 1 болванка DVDR/RW)
 
 
Похожие темы
Форум Тема Автор Торрент Отв. Посл. сооб.
Зарубежные мультфильмы Роботы / Robots (Крис Уэдж) [2005 г., Фантастика, комедия, приключения, BDRip-AVC] Dub + Original Чертёнок
3 | 0

0 | 637

26

30.04.2013 12:25

Архив Роботы / Robots (Крис Уэдж, Карлос Салдана) [2005 г., фантастика, комедия, приключения, семейный, мультфильм, ..., BDRip] deny
0 | 0

5 | 1256

0

12.11.2010 23:48

8ad_R060d Пол:Муж

13-Мар-2013 18:03

Ещё не смотрел, как просмотрю, отпишусь..

8ad_R060d Пол:Муж

01-Июн-2015 17:42

Cтранно, сам файл есть, размер такой же, скачан отсюда, а раздаваться не хочет. Было обновление? Как помочь желающему скачать?

Яндекс.Метрика powered by Sphinx


В Н И М А Н И Е
Сайт не распространяет и не хранит электронные версии произведений, а лишь бесплатно и без коммерческой выгоды (не требуя взамен платы,
SMS и т.д.) предоставляет доступ к создаваемому пользователями каталогу ссылок на торрент-файлы, которые содержат только списки хеш-сумм.
Убедительная просьба с жалобами обращаться напрямую к пользователю, разместившему торрент файл.

Вверх