Loading...
Error

Учитель в законе 3. Возвращение / Серии: 1-32(32) (Сергей Виноградов, Рустам Уразаев) [2013, боевик, драма, криминал, SATRip]

Статистика раздачи
Размер:  17,21 GB   |    Зарегистрирован:  3 года 8 месяцев   |    Скачан:  17 раз

Полного источника не было: 8 месяцев

Сидов:  0  |  0 KB/s  ]   Личеров:  0  |  0 KB/s  ]

* - сиды/пиры с внешних источников

   
 
Автор Сообщение

nemos Пол:Муж

12-Мар-2013 08:49

Учитель в законе 3. Возвращение


Год выпуска: 2013
Жанр: боевик, драма, криминал
Страна: Россия
Режиссер: Сергей Виноградов, Рустам Уразаев
В ролях: Юрий Беляев, Михаил Горевой, Александр Кузнецов, Сергей Векслер, Всеволод Николаев, Кристина Бабушкина, Наталия Антонова, Константин Желдин, Георгий Пицхелаури, Владимир Стеклов, Олеся Судзиловская, Дмитрий Янышевский, Кристина Кучеренко, Денис Варенов, Юрий Воробьев, Роман Индык, Елена Муравьёва, Денис Старков, Даниил Кокин, Бесо Гатаев, Станислав Эрклиевский, Александр Печенин, Денис Дружинин, Чеслав Головинец, Эльдар Калимулин, Дмитрий Собачкин, Ксения Попович, Дмитрий Горевой, Роман Гредин, Тимур Ефременков, Иван Руденко, Венчислав Хотяновский, Алексей Костерев, Елена Мироненко, Ирина Темичева, Руслан Ягудин, Сергей Карасевич
Сюжет фильма:
С тех пор как Борис Богомолов, он же Богомол, в прошлом – вор в законе, а ныне – добропорядочный учитель, нашел своего сына Ваню, прошел целый год. Они вместе живут в городе Солнечный, Ваня ходит в школу, а Борис Андреевич руководит приютом для детей. С законом у Богомола все в порядке, с прошлым он завязал.… Но неожиданно учителя вновь затягивает водоворот криминальных событий: во время рейдерского захвата ювелирного завода директора производства расстреливают прямо у проходной. Происходит это сразу после его встречи с Богомолом, который тут же становится главным подозреваемым. Настоящий заказчик и захвата, и убийства — авторитет Вагон. Вскоре становится очевидно, что эти преступления — лишь мелкая деталь в криминальной схеме по продаже за границу ворованных якутских алмазов. Удастся ли учителю обелить себя, вывести на чистую воду преступников и спасти сына, на которого объявил охоту коварный враг?


Качество видео: SatRip

Продолжительность: 00:44:30серия
Формат: AVI
Видео: XviD, 720х400, 1 526 kbps
Аудио: русский, MP3 2.0, 192 kbps

Код:

E:\С underverse-3 Фильмы\Uchitel.v.zakone.Vozvraschenie.2013.XviD.SATRip.Files-x\Uchitel.v.zakone.Vozvraschenie.01.seriya.2013.XviD.SATRip.Files-x.avi
   General
      Complete name : E:\С underverse-3 Фильмы\Uchitel.v.zakone.Vozvraschenie.2013.XviD.SATRip.Files-x\Uchitel.v.zakone.Vozvraschenie.01.seriya.2013.XviD.SATRip.Files-x.avi
      Format : AVI
      Format/Info : Audio Video Interleave
      File size : 550 MiB
      Duration : 44mn 30s
      Overall bit rate : 1 728 Kbps
      Writing application : VirtualDubMod 1.5.10.3 | www.virtualdub-fr.org || (build 2550/release)
      Writing library : VirtualDubMod build 2550/release
   Video #0
      ID : 0
      Format : MPEG-4 Visual
      Format profile : Advanced Simple@L5
      Format settings, BVOP : 1
      Format settings, QPel : No
      Format settings, GMC : No warppoints
      Format settings, Matrix : Default (H.263)
      Codec ID : XVID
      Codec ID/Hint : XviD
      Duration : 44mn 30s
      Bit rate : 1 526 Kbps
      Width : 720 pixels
      Height : 400 pixels
      Display aspect ratio : 16:9
      Frame rate : 25.000 fps
      Color space : YUV
      Chroma subsampling : 4:2:0
      Bit depth : 8 bits
      Scan type : Progressive
      Compression mode : Lossy
      Bits/(Pixel*Frame) : 0.212
      Stream size : 486 MiB (88%)
      Writing library : XviD 1.2.1 (UTC 2008-12-04)
   Audio #1
      ID : 1
      Format : MPEG Audio
      Format version : Version 1
      Format profile : Layer 3
      Codec ID : 55
      Codec ID/Hint : MP3
      Duration : 44mn 30s
      Bit rate mode : Constant
      Bit rate : 192 Kbps
      Channel(s) : 2 channels
      Sampling rate : 48.0 KHz
      Compression mode : Lossy
      Stream size : 61.1 MiB (11%)
      Alignment : Aligned on interleaves
      Interleave, duration : 40 ms (1.00 video frame)
      Interleave, preload duration : 504 ms
      Writing library : LAME3.98r
      Encoding settings : -m s -V 4 -q 2 -lowpass 18.6 -b 192
Семпл: http://multi-up.com/841933

picpicpicpicpicpicpicpicpicpicpicpicpicpicpic
Для увеличения картинки щелкните мышкой по превью
Сериал который был выложен и зарегистрирован более двух месяцев назад буду раздавать с 23.00ч до 06.00ч утра ( вина в этом немоя, а пользователей которые неподдерживают раздачу)

Этот торрент недоступен для скачивания без регистрации, однако доступен по публичной magnet-ссылке (источники с публичных трекеров). Перед использованием ссылки прочтите, пожалуйста Пользовательское соглашение, а также как можно дольше оставайтесь на раздаче! Для того, чтобы скачать сам торрент-файл (который видит больше источников), а также для того, чтобы поблагодарить релизера, вам необходимо зарегистрироваться. Если регистрироваться лень - вы можете также попробовать скачать релиз по нашим партнерским ссылкам ниже.

[underverse.su].t25341.torrent
Трекер: Зарегистрирован   [ 23.03.2013 18:44 ]  

Статус: проверено (by Чертёнок at 23.03.2013 20:12)
Поблагодарили: 4 человека
Тип торрента: публичный - доступные источники с открытых трекеров: 
Размер: 17,21 GB (занимает 3,93 DVDR, для записи нужно 4 болванки DVDR/RW)
 
 
Похожие темы
Форум Тема Автор Торрент Отв. Посл. сооб.
Наше кино [DVDRip, Low-Res HDRip, и т.д.] Учитель в законе(Александр Мохов) [2007 г., боевик, DVDRip] nemos
10 | 0

0 | 958

19

13.03.2013 17:55

xUSSR сериалы Учитель в законе 2 / Серии: 1-16 (16) (Александр Мохов) [2010, драма, криминал, SATRip] nemos
8 | 1

0 | 896

12

13.03.2013 18:45



Последний раз редактировалось: nemos (06.11.2014 12:15), всего редактировалось 11 раз(а)

nemos Пол:Муж

12-Мар-2013 19:55

Торрент обновлен(32 серий)

Яндекс.Метрика powered by Sphinx


В Н И М А Н И Е
Сайт не распространяет и не хранит электронные версии произведений, а лишь бесплатно и без коммерческой выгоды (не требуя взамен платы,
SMS и т.д.) предоставляет доступ к создаваемому пользователями каталогу ссылок на торрент-файлы, которые содержат только списки хеш-сумм.
Убедительная просьба с жалобами обращаться напрямую к пользователю, разместившему торрент файл.

Вверх