Loading...
Error

Игры патриотов / Patriot Games (Филлип Нойс) [1992 г., боевик, триллер, драма, криминал, BDRip-AVC] MVO + 3xAVO + Original + DVO

Статистика раздачи
Размер:  5,26 GB   |    Зарегистрирован:  3 года 8 месяцев   |    Скачан:  11 раз

Полного источника не было: 1 год 11 месяцев

Сидов:  0  |  0 KB/s  ]   Личеров:  0  |  0 KB/s  ]

* - сиды/пиры с внешних источников

   
 
Автор Сообщение

garry Пол:Муж

09-Мар-2013 20:57

Игры патриотов / Patriot Games


Год выпуска: 1992
Жанр: боевик, триллер, драма, криминал
Страна: США
Режиссер: Филлип Нойс
В ролях: Харрисон Форд, Шон Бин, Энн Арчер, Патрик Бергин, Тора Бёрч, Джеймс Фокс, Сэмюэл Л. Джексон, Полли Уокер, Дж.Э. Фримен, Джеймс Эрл Джонс
Сюжет фильма:
Бывший сотрудник ЦРУ, а ныне профессор военно-морской академии США Джек Райан, находясь в Лондоне с докладом, случайно становится свидетелем террористического акта Ирландской республиканской армии против королевской семьи. Райан предотвращает трагедию, но ирландские террористы грозят отомстить. Опасная угроза нависает над Райаном, его женой и дочерью…

  • Мировая премьера: 5 июня 1992

/
Качество видео: BDRip-AVC

Продолжительность: 01:56:44
Формат: MKV
Видео: x264, 1152x498, 4014 kbps
Аудио #1: русский, многоголосый закадровый [профессиональный, BD СЕЕ], AC3 5.1, 448 kbps
Аудио #2: русский, одноголосый закадровый [авторский, Гаврилов], AC3 5.1, 448 kbps
Аудио #3: английский, оригинал, AC3 5.1, 448 kbps
Аудио #4: русский, двухголосый закадровый [профессиональный, Карусель], AC3 5.1, 448 kbps (отдельно)
Аудио #5: русский, одноголосый закадровый [авторский, Живов], AC3 5.1, 448 kbps (отдельно)
Аудио #6: русский, одноголосый закадровый [авторский, Пронин], AC3 2.0, 192 kbps (отдельно)
Субтитры #1: тип: вшитые отключаемые, русский, формат: SRT
Субтитры #2: тип: вшитые отключаемые, русский, формат: SRT
Субтитры #3: тип: вшитые отключаемые, английский, формат: SRT

Код:

General
 Unique ID : 203154153160336709404387695991121283315 (0x98D611129562EC20B2772CA1729088F3)
 Complete name : C:\Video\Patriot Games.mkv
 Format : Matroska
 Format version : Version 2
 File size : 4.37 GiB
 Duration : 1h 56mn
 Overall bit rate : 5 358 Kbps
 Encoded date : UTC 2013-03-09 13:18:35
 Writing application : mkvmerge v5.6.0 ('Kenya Kane') built on May 27 2012 16:44:04
 Writing library : libebml v1.2.3 + libmatroska v1.3.0
 Attachment : Yes

Video
 ID : 1
 Format : AVC
 Format/Info : Advanced Video Codec
 Format profile : High@L4.1
 Format settings, CABAC : Yes
 Format settings, ReFrames : 14 frames
 Codec ID : V_MPEG4/ISO/AVC
 Duration : 1h 56mn
 Bit rate : 4 014 Kbps
 Width : 1 152 pixels
 Height : 498 pixels
 Display aspect ratio : 2.35:1
 Frame rate mode : Constant
 Frame rate : 23.976 fps
 Color space : YUV
 Chroma subsampling : 4:2:0
 Bit depth : 8 bits
 Scan type : Progressive
 Bits/(Pixel*Frame) : 0.292
 Stream size : 3.19 GiB (73%)
 Title : AVC 1152x498@23.976 fps ~ 4014 kBit/s 2-pass High 4.1 0.292
 Writing library : x264 core 125 r2200bm 999b753
 Encoding settings : cabac=1 / ref=14 / deblock=1:-2:-2 / analyse=0x3:0x133 / me=umh / subme=10 / psy=1 / psy_rd=1.00:0.25 / mixed_ref=1 / me_range=32 / chroma_me=1 / trellis=2 / 8x8dct=1 / cqm=0 / deadzone=6,6 / fast_pskip=0 / chroma_qp_offset=-4 / threads=6 / lookahead_threads=1 / sliced_threads=0 / nr=0 / decimate=1 / interlaced=0 / bluray_compat=0 / constrained_intra=0 / bframes=12 / b_pyramid=2 / b_adapt=2 / b_bias=0 / direct=3 / weightb=1 / open_gop=0 / weightp=2 / keyint=250 / keyint_min=23 / scenecut=40 / intra_refresh=0 / rc=2pass / mbtree=0 / bitrate=4014 / ratetol=1.0 / qcomp=0.80 / qpmin=10 / qpmax=69 / qpstep=4 / cplxblur=40.0 / qblur=1.2 / ip_ratio=1.15 / pb_ratio=1.15 / aq=2:0.50
 Language : English
 Default : Yes
 Forced : No

Audio #1
 ID : 2
 Format : AC-3
 Format/Info : Audio Coding 3
 Mode extension : CM (complete main)
 Format settings, Endianness : Big
 Codec ID : A_AC3
 Duration : 1h 56mn
 Bit rate mode : Constant
 Bit rate : 448 Kbps
 Channel(s) : 6 channels
 Channel positions : Front: L C R, Side: L R, LFE
 Sampling rate : 48.0 KHz
 Bit depth : 16 bits
 Compression mode : Lossy
 Stream size : 374 MiB (8%)
 Title : MVO CEE AC3 448 kBit/s 48 kHz 5.1 DD
 Language : Russian
 Default : Yes
 Forced : No

Audio #2
 ID : 3
 Format : AC-3
 Format/Info : Audio Coding 3
 Mode extension : CM (complete main)
 Format settings, Endianness : Big
 Codec ID : A_AC3
 Duration : 1h 56mn
 Bit rate mode : Constant
 Bit rate : 448 Kbps
 Channel(s) : 6 channels
 Channel positions : Front: L C R, Side: L R, LFE
 Sampling rate : 48.0 KHz
 Bit depth : 16 bits
 Compression mode : Lossy
 Stream size : 374 MiB (8%)
 Title : AVO Гаврилов AC3 448 kBit/s 48 kHz 5.1 DD
 Language : Russian
 Default : No
 Forced : No

Audio #3
 ID : 4
 Format : AC-3
 Format/Info : Audio Coding 3
 Mode extension : CM (complete main)
 Format settings, Endianness : Big
 Codec ID : A_AC3
 Duration : 1h 56mn
 Bit rate mode : Constant
 Bit rate : 448 Kbps
 Channel(s) : 6 channels
 Channel positions : Front: L C R, Side: L R, LFE
 Sampling rate : 48.0 KHz
 Bit depth : 16 bits
 Compression mode : Lossy
 Stream size : 374 MiB (8%)
 Title : English AC3 448 kBit/s 48 kHz 5.1 DD
 Language : English
 Default : No
 Forced : No

Text #1
 ID : 5
 Format : UTF-8
 Codec ID : S_TEXT/UTF8
 Codec ID/Info : UTF-8 Plain Text
 Language : Russian
 Default : No
 Forced : No

Text #2
 ID : 6
 Format : UTF-8
 Codec ID : S_TEXT/UTF8
 Codec ID/Info : UTF-8 Plain Text
 Language : Russian
 Default : No
 Forced : No

Text #3
 ID : 7
 Format : UTF-8
 Codec ID : S_TEXT/UTF8
 Codec ID/Info : UTF-8 Plain Text
 Language : English
 Default : No
 Forced : No
Семпл: http://multi-up.com/840883

Релиз группы:

picpicpic
Для увеличения картинки щелкните мышкой по превью

Этот торрент недоступен для скачивания без регистрации, однако доступен по публичной magnet-ссылке (источники с публичных трекеров). Перед использованием ссылки прочтите, пожалуйста Пользовательское соглашение, а также как можно дольше оставайтесь на раздаче! Для того, чтобы скачать сам торрент-файл (который видит больше источников), а также для того, чтобы поблагодарить релизера, вам необходимо зарегистрироваться. Если регистрироваться лень - вы можете также попробовать скачать релиз по нашим партнерским ссылкам ниже.

[underverse.su].t24879.torrent
Трекер: Зарегистрирован   [ 09.03.2013 20:57 ]  

Статус: проверено (by garry at 09.03.2013 20:59)
Поблагодарили: 2 человека
Тип торрента: публичный - доступные источники с открытых трекеров: 
Размер: 5,26 GB (занимает 1,2 DVDR, для записи нужно 2 болванки DVDR/RW)
 
 
Похожие темы
Форум Тема Автор Торрент Отв. Посл. сооб.
Зарубежное кино [DVD / HDDVD / BD / Remux] Игры патриотов / Patriot Games (Филлип Нойс / Phillip Noyce) [1992 г., боевик, триллер, драма, криминал, BDRemux 1080p] MVO + DVO + AVOx3 (Гаврилов, Живов, Пронин) uzi2009
2 | 0

0 | 565

1

15.08.2014 11:21


Яндекс.Метрика powered by Sphinx


В Н И М А Н И Е
Сайт не распространяет и не хранит электронные версии произведений, а лишь бесплатно и без коммерческой выгоды (не требуя взамен платы,
SMS и т.д.) предоставляет доступ к создаваемому пользователями каталогу ссылок на торрент-файлы, которые содержат только списки хеш-сумм.
Убедительная просьба с жалобами обращаться напрямую к пользователю, разместившему торрент файл.

Вверх