Loading...
Error

Извне / From Beyond (Стюарт Гордон) [1986 г., ужасы, фантастика, комедия, BDRip-AVC] MVO + AVO + Original + 3xAVO

Статистика раздачи
Размер:  3,25 GB   |    Зарегистрирован:  3 года 8 месяцев   |    Скачан:  13 раз

Полного источника не было: 7 месяцев

Сидов:  0  |  0 KB/s  ]   Личеров:  0  |  0 KB/s  ]

* - сиды/пиры с внешних источников

   
 
Автор Сообщение

garry Пол:Муж

09-Мар-2013 19:02

Извне / From Beyond


Год выпуска: 1986
Жанр: ужасы, фантастика, комедия
Страна: США
Режиссер: Стюарт Гордон
В ролях: Джеффри Комбс, Барбара Крэмптон, Тед Сорел, Кен Фори, Кэролин Пёрди-Гордон, Банни Саммерс, Брюс МакГуайр, Дель Рассел, Дэйл Уайатт, Карен Кристенфелд
Сюжет фильма:
Согласно теории ученого Преториуса человек, сам того не подозревая, сосуществует с другим невидимым миром, окружающим нас все время. Ключом для проникновения в этот параллельный мир является наш «третий глаз», бездействующий орган в лобовой части.

Когда резонатор (машина, которую Претриус создал для стимуляции «третьего глаза») заработал, ученым удалось проникнуть в империю «шестого чувства» и вызвать подтверждение извне: они увидели вокруг себя жутких и отвратительных тварей, скользящих в воздухе! Но одно из чудовищ неожиданно разъярилось и откусило Преториусу голову.

  • Мировая премьера: 24 октября 1986

/
Качество видео: BDRip-AVC

Продолжительность: 01:25:36
Формат: MKV
Видео: x264, 1184x642, 4103 kbps
Аудио #1: русский, многоголосый закадровый [профессиональный, ТВ3], AC3 2.0, 192 kbps
Аудио #2: русский, одноголосый закадровый [авторский, Гаврилов], AC3 2.0, 192 kbps
Аудио #3: английский, оригинал, AC3 5.1, 448 kbps
Аудио #4: русский, одноголосый закадровый [авторский, Иванов], AC3 2.0, 192 kbps (отдельно)
Аудио #5: русский, одноголосый закадровый [авторский, Карцев], AC3 2.0, 192 kbps (отдельно)
Аудио #6: русский, одноголосый закадровый [авторский, Филонов], AC3 2.0, 192 kbps (отдельно)
Субтитры #1: тип: вшитые отключаемые, русский, формат: SRT
Субтитры #2: тип: вшитые отключаемые, английский, формат: SRT

Код:

General
 Unique ID : 241581132829186555374609981981932428207 (0xB5BED5720C14E0E692BCF03EEB709BAF)
 Complete name : F:\FILMS\___ - R - ___\From Beyond\From Beyond.mkv
 Format : Matroska
 Format version : Version 2
 File size : 2.91 GiB
 Duration : 1h 25mn
 Overall bit rate : 4 868 Kbps
 Encoded date : UTC 2013-03-06 18:13:49
 Writing application : mkvmerge v5.6.0 ('Kenya Kane') built on May 27 2012 16:44:04
 Writing library : libebml v1.2.3 + libmatroska v1.3.0

Video
 ID : 1
 Format : AVC
 Format/Info : Advanced Video Codec
 Format profile : High@L4.1
 Format settings, CABAC : Yes
 Format settings, ReFrames : 10 frames
 Codec ID : V_MPEG4/ISO/AVC
 Duration : 1h 25mn
 Bit rate : 4 103 Kbps
 Width : 1 184 pixels
 Height : 642 pixels
 Display aspect ratio : 1.85:1
 Frame rate mode : Constant
 Frame rate : 23.976 fps
 Color space : YUV
 Chroma subsampling : 4:2:0
 Bit depth : 8 bits
 Scan type : Progressive
 Bits/(Pixel*Frame) : 0.225
 Stream size : 2.39 GiB (82%)
 Title : AVC 1184x642@23.976 fps ~4103 kBit/s 2-pass high 4.1 0.225 1.85:1
 Writing library : x264 core 125 r2200bm 999b753
 Encoding settings : cabac=1 / ref=10 / deblock=1:-2:-2 / analyse=0x3:0x133 / me=umh / subme=10 / psy=1 / psy_rd=1.00:0.05 / mixed_ref=1 / me_range=32 / chroma_me=1 / trellis=2 / 8x8dct=1 / cqm=0 / deadzone=21,11 / fast_pskip=0 / chroma_qp_offset=-3 / threads=6 / lookahead_threads=1 / sliced_threads=0 / nr=0 / decimate=1 / interlaced=0 / bluray_compat=0 / constrained_intra=0 / bframes=12 / b_pyramid=2 / b_adapt=2 / b_bias=0 / direct=3 / weightb=1 / open_gop=0 / weightp=2 / keyint=250 / keyint_min=23 / scenecut=40 / intra_refresh=0 / rc=2pass / mbtree=0 / bitrate=4103 / ratetol=1.0 / qcomp=0.90 / qpmin=13 / qpmax=69 / qpstep=4 / cplxblur=40.0 / qblur=1.2 / ip_ratio=1.25 / pb_ratio=1.30 / aq=2:0.90
 Language : English
 Default : Yes
 Forced : No

Audio #1
 ID : 2
 Format : AC-3
 Format/Info : Audio Coding 3
 Mode extension : CM (complete main)
 Format settings, Endianness : Big
 Codec ID : A_AC3
 Duration : 1h 25mn
 Bit rate mode : Constant
 Bit rate : 192 Kbps
 Channel(s) : 2 channels
 Channel positions : Front: L R
 Sampling rate : 48.0 KHz
 Bit depth : 16 bits
 Compression mode : Lossy
 Stream size : 118 MiB (4%)
 Title : MVO TB3 AC3 192 kBit/s 48 kHz 2.0 DD
 Language : Russian
 Default : Yes
 Forced : No

Audio #2
 ID : 3
 Format : AC-3
 Format/Info : Audio Coding 3
 Mode extension : CM (complete main)
 Format settings, Endianness : Big
 Codec ID : A_AC3
 Duration : 1h 25mn
 Bit rate mode : Constant
 Bit rate : 192 Kbps
 Channel(s) : 2 channels
 Channel positions : Front: L R
 Sampling rate : 48.0 KHz
 Bit depth : 16 bits
 Compression mode : Lossy
 Stream size : 118 MiB (4%)
 Title : AVO Гаврилов AC3 192 kBit/s 48 kHz 2.0 DD
 Language : Russian
 Default : No
 Forced : No

Audio #3
 ID : 4
 Format : AC-3
 Format/Info : Audio Coding 3
 Mode extension : CM (complete main)
 Format settings, Endianness : Big
 Codec ID : A_AC3
 Duration : 1h 25mn
 Bit rate mode : Constant
 Bit rate : 384 Kbps
 Channel(s) : 6 channels
 Channel positions : Front: L C R, Side: L R, LFE
 Sampling rate : 48.0 KHz
 Bit depth : 16 bits
 Compression mode : Lossy
 Stream size : 235 MiB (8%)
 Title : English AC3 384 kBit/s 48 kHz 5.0 DD
 Language : English
 Default : No
 Forced : No

Text #1
 ID : 5
 Format : UTF-8
 Codec ID : S_TEXT/UTF8
 Codec ID/Info : UTF-8 Plain Text
 Language : Russian
 Default : No
 Forced : No

Text #2
 ID : 6
 Format : UTF-8
 Codec ID : S_TEXT/UTF8
 Codec ID/Info : UTF-8 Plain Text
 Language : English
 Default : No
 Forced : No
Семпл: http://multi-up.com/840730

Релиз группы:

picpicpic
Для увеличения картинки щелкните мышкой по превью

Этот торрент недоступен для скачивания без регистрации, однако доступен по публичной magnet-ссылке (источники с публичных трекеров). Перед использованием ссылки прочтите, пожалуйста Пользовательское соглашение, а также как можно дольше оставайтесь на раздаче! Для того, чтобы скачать сам торрент-файл (который видит больше источников), а также для того, чтобы поблагодарить релизера, вам необходимо зарегистрироваться. Если регистрироваться лень - вы можете также попробовать скачать релиз по нашим партнерским ссылкам ниже.

[underverse.su].t24877.torrent
Трекер: Зарегистрирован   [ 09.03.2013 19:02 ]  

Статус: проверено (by garry at 09.03.2013 19:03)
Поблагодарили: пока никто не поблагодарил...
Тип торрента: публичный - доступные источники с открытых трекеров: 
Размер: 3,25 GB (занимает 0,74 DVDR, для записи нужно 1 болванка DVDR/RW)
 
 

Яндекс.Метрика powered by Sphinx


В Н И М А Н И Е
Сайт не распространяет и не хранит электронные версии произведений, а лишь бесплатно и без коммерческой выгоды (не требуя взамен платы,
SMS и т.д.) предоставляет доступ к создаваемому пользователями каталогу ссылок на торрент-файлы, которые содержат только списки хеш-сумм.
Убедительная просьба с жалобами обращаться напрямую к пользователю, разместившему торрент файл.

Вверх