Loading...
Error

Чужая земля / Outland (Питер Хайамс) [1981 г., фантастика, боевик, триллер, криминал, BDRip-AVC] Dub + DVO + Original

Статистика раздачи
Размер:  3,77 GB   |    Зарегистрирован:  3 года 8 месяцев   |    Скачан:  19 раз

Полного источника не было: 2 года 1 месяц

Сидов:  0  |  0 KB/s  ]   Личеров:  0  |  0 KB/s  ]

* - сиды/пиры с внешних источников

   
 
Автор Сообщение

garry Пол:Муж

09-Мар-2013 18:46

Чужая земля / Outland


Год выпуска: 1981
Жанр: фантастика, боевик, триллер, криминал
Страна: Великобритания
Режиссер: Питер Хайамс
В ролях: Шон Коннери, Питер Бойл, Фрэнсис Стернхаген, Джеймс Сиккинг, Кика Маркам, Кларк Питерс, Стивен Беркофф, Джон Ратценбергер, Николас Барнс, Мэннинг Редвуд
Сюжет фильма:
В далеком будущем, полицейский маршал, отправленный на удаленную шахтерскую колонию на спутнике Юпитера Ио, раскрывает заговор контрабандистов, и не получает никакой помощи от населения, когда его обвиняют за убийство.

  • Мировая премьера: 22 мая 1981


Качество видео: BDRip-AVC

Продолжительность: 01:49:18
Формат: MKV
Видео: x264, 1152x480, 4100 kbps
Аудио #1: русский, дублированный [Варус Видео с VHS], AC3 2.0, 192 kbps
Аудио #2: русский, двухголосый закадровый [профессиональный, НТВ+], AC3 2.0, 192 kbps
Аудио #3: английский, оригинал, AC3 5.1, 448 kbps
Субтитры #1: тип: вшитые отключаемые, английский, формат: SRT

Код:

General
 Complete name : E:\...\Outland.1981.BDRip.x264.AC3.Rus.Eng-E76.mkv
 Format : Matroska
 Format version : Version 2
 File size : 3.77 GiB
 Duration : 1h 49mn
 Overall bit rate : 4 922 Kbps
 Movie name : Outland.1981.BDRip.x264.AC3.Rus.Eng-E76
 Encoded date : UTC 2013-02-24 22:07:00
 Writing application : mkvmerge v5.8.0 ('No Sleep / Pillow') built on Sep 2 2012 15:37:04
 Writing library : libebml v1.2.3 + libmatroska v1.3.0

Video
 ID : 1
 Format : AVC
 Format/Info : Advanced Video Codec
 Format profile : High@L4.1
 Format settings, CABAC : Yes
 Format settings, ReFrames : 12 frames
 Codec ID : V_MPEG4/ISO/AVC
 Duration : 1h 49mn
 Bit rate : 4 100 Kbps
 Width : 1 152 pixels
 Height : 480 pixels
 Display aspect ratio : 2.40:1
 Frame rate mode : Constant
 Frame rate : 23.976 fps
 Color space : YUV
 Chroma subsampling : 4:2:0
 Bit depth : 8 bits
 Scan type : Progressive
 Bits/(Pixel*Frame) : 0.309
 Stream size : 3.06 GiB (81%)
 Title : Encode by Enclave76
 Writing library : x264 core 129 r2245kMod bc13772
 Encoding settings : cabac=1 / ref=12 / deblock=1:-3:-2 / analyse=0x3:0x113 / me=umh / subme=11 / psy=1 / fade_compensate=0.00 / psy_rd=1.00:0.00 / mixed_ref=1 / me_range=48 / chroma_me=1 / trellis=2 / 8x8dct=1 / cqm=0 / deadzone=21,11 / fast_pskip=0 / chroma_qp_offset=-2 / threads=6 / lookahead_threads=1 / sliced_threads=0 / nr=0 / decimate=0 / interlaced=0 / bluray_compat=0 / constrained_intra=0 / bframes=14 / b_pyramid=2 / b_adapt=2 / b_bias=0 / direct=3 / weightb=1 / open_gop=0 / weightp=2 / keyint=240 / keyint_min=23 / scenecut=40 / intra_refresh=0 / rc_lookahead=40 / rc=2pass / mbtree=0 / bitrate=4100 / ratetol=1.0 / qcomp=0.65 / qpmin=0 / qpmax=69 / qpstep=4 / cplxblur=20.0 / qblur=0.5 / vbv_maxrate=50000 / vbv_bufsize=62500 / nal_hrd=none / ip_ratio=1.40 / pb_ratio=1.30 / aq=3:1.00 / zones=153125,157234,q=30
 Language : English
 Default : No
 Forced : No
 Matrix coefficients : BT.709

Audio #1
 ID : 2
 Format : AC-3
 Format/Info : Audio Coding 3
 Mode extension : CM (complete main)
 Format settings, Endianness : Big
 Codec ID : A_AC3
 Duration : 1h 49mn
 Bit rate mode : Constant
 Bit rate : 192 Kbps
 Channel(s) : 2 channels
 Channel positions : Front: L R
 Sampling rate : 48.0 KHz
 Bit depth : 16 bits
 Compression mode : Lossy
 Stream size : 150 MiB (4%)
 Title : Dub Varus VHS
 Language : Russian
 Default : Yes
 Forced : No

Audio #2
 ID : 3
 Format : AC-3
 Format/Info : Audio Coding 3
 Mode extension : CM (complete main)
 Format settings, Endianness : Big
 Codec ID : A_AC3
 Duration : 1h 49mn
 Bit rate mode : Constant
 Bit rate : 192 Kbps
 Channel(s) : 2 channels
 Channel positions : Front: L R
 Sampling rate : 48.0 KHz
 Bit depth : 16 bits
 Compression mode : Lossy
 Stream size : 150 MiB (4%)
 Title : DVO NTV+
 Language : Russian
 Default : No
 Forced : No

Audio #3
 ID : 4
 Format : AC-3
 Format/Info : Audio Coding 3
 Mode extension : CM (complete main)
 Format settings, Endianness : Big
 Codec ID : A_AC3
 Duration : 1h 49mn
 Bit rate mode : Constant
 Bit rate : 448 Kbps
 Channel(s) : 6 channels
 Channel positions : Front: L C R, Side: L R, LFE
 Sampling rate : 48.0 KHz
 Bit depth : 16 bits
 Compression mode : Lossy
 Stream size : 351 MiB (9%)
 Title : Original
 Language : English
 Default : No
 Forced : No

Text
 ID : 5
 Format : UTF-8
 Codec ID : S_TEXT/UTF8
 Codec ID/Info : UTF-8 Plain Text
 Language : English
 Default : No
 Forced : No

Menu
 00:00:00.000 : en:Credits
 00:01:48.441 : en:Io
 00:03:58.905 : en:Over the Edge
 00:07:55.600 : en:Disquiet Among the O'Neils
 00:10:46.062 : en:All Professionals
 00:14:43.924 : en:Zero-pressure Atmosphere
 00:17:46.398 : en:Carol's Goodbye
 00:20:42.407 : en:The Medico Meets the Marshall
 00:24:17.080 : en:In Their Solitudes
 00:29:06.536 : en:Reasoning with a Madman
 00:33:03.898 : en:Diagnostics
 00:35:18.783 : en:A Blood Sample's Secrets
 00:41:48.172 : en:Two Suspects: Eye Spy
 00:46:01.508 : en:Hardball with Montone
 00:48:14.057 : en:Justice the Hard Way
 00:54:54.291 : en:No Place for a Hero
 00:59:19.138 : en:Bloody Surprises
 01:00:40.762 : en:The Meat Locker
 01:03:12.205 : en:"Marshall... You're Dead"
 01:05:07.904 : en:Tapping In
 01:09:17.111 : en:Almost Alone
 01:14:33.844 : en:Words of Support
 01:19:26.428 : en:The Shuttle: Danger disembarks
 01:26:32.687 : en:In a Killer's Sights
 01:29:12.764 : en:An Ally: Lazarus
 01:33:48.748 : en:Sealing a Killer's Fate
 01:36:21.776 : en:The Greenhouse
 01:39:30.547 : en:An Unexpected Foe
 01:43:03.844 : en:Regards to Sheppard
 01:44:35.644 : en:"You Did Good"
 01:46:28.131 : en:End Credits
Семпл: http://multi-up.com/839373

Релиз группы:

picpicpic
Для увеличения картинки щелкните мышкой по превью

Этот торрент недоступен для скачивания без регистрации, однако доступен по публичной magnet-ссылке (источники с публичных трекеров). Перед использованием ссылки прочтите, пожалуйста Пользовательское соглашение, а также как можно дольше оставайтесь на раздаче! Для того, чтобы скачать сам торрент-файл (который видит больше источников), а также для того, чтобы поблагодарить релизера, вам необходимо зарегистрироваться. Если регистрироваться лень - вы можете также попробовать скачать релиз по нашим партнерским ссылкам ниже.

[underverse.su].t24875.torrent
Трекер: Зарегистрирован   [ 09.03.2013 18:46 ]  

Статус: проверено (by garry at 09.03.2013 18:48)
Поблагодарили: пока никто не поблагодарил...
Тип торрента: публичный - доступные источники с открытых трекеров: 
Размер: 3,77 GB (занимает 0,86 DVDR, для записи нужно 1 болванка DVDR/RW)
 
 

Яндекс.Метрика powered by Sphinx


В Н И М А Н И Е
Сайт не распространяет и не хранит электронные версии произведений, а лишь бесплатно и без коммерческой выгоды (не требуя взамен платы,
SMS и т.д.) предоставляет доступ к создаваемому пользователями каталогу ссылок на торрент-файлы, которые содержат только списки хеш-сумм.
Убедительная просьба с жалобами обращаться напрямую к пользователю, разместившему торрент файл.

Вверх