Loading...
Error

Cirque du Soleil: Сказочный мир / Cirque du Soleil: Worlds Away (Эндрю Адамсон) [2012 г., фэнтези, BDRip] Original HQ Underverse

Статистика раздачи
Размер:  1,46 GB   |    Зарегистрирован:  3 года 8 месяцев   |    Скачан:  30 раз
Сидов:  1  |  0 KB/s  ]   Личеров:  0  |  0 KB/s  ]

* - сиды/пиры с внешних источников

   
 
Автор Сообщение

HQ Underverse 

09-Мар-2013 13:31

Cirque du Soleil: Сказочный мир / Cirque du Soleil: Worlds Away


Год выпуска: 2012
Жанр: фэнтези
Страна: США
Режиссер: Эндрю Адамсон
В ролях: Эрика Линц, Игорь Зарипов, Лутс Халбхюбнер, Джон Кларк, Даллас Барнетт, Таня Дрюери, Сара Хуболт, Аскья Мэйбери, Дэмиен Гордон, Зэк Бриклэнд
Сюжет фильма:
Удивительная история двух влюбленных, которых разлучила судьба, по мотивам лучших шоу Cirque du Soleil. Им придется пройти через многое, чтобы снова быть вместе…

  • Мировая премьера: 20 октября 2012
  • Российская премьера: 27 декабря 2012, «Централ Партнершип» 3D

/
Качество видео: BDRip [Cirque.du.Soleil.Worlds.Away.2012.BluRay.1080p.AVC.DTS-HD.MA5.1-CHD]

Продолжительность: 01:31:12
Формат: avi
Видео: XviD, 720x400, 1834 kbps
Аудио: английский, оригинал, AC3 5.1, 448 kbps
Субтитры: внешние, SRT, английский

Код:

General
Complete name                    : D:\Video\Movies\Releases\Cirque.du.Soleil.Worlds.Away.2012.BDRip.XviD.AC3.Eng.O.HQ.Underverse.avi
Format                           : AVI
Format/Info                      : Audio Video Interleave
File size                        : 1.46 GiB
Duration                         : 1h 31mn
Overall bit rate                 : 2 292 Kbps
Writing application              : VirtualDubMod 1.5.10.2 (build 2540/release)
Writing library                  : VirtualDubMod build 2540/release

Video
ID                               : 0
Format                           : MPEG-4 Visual
Format profile                   : Streaming Video@L1
Format settings, BVOP            : Yes
Format settings, QPel            : No
Format settings, GMC             : No warppoints
Format settings, Matrix          : Custom
Muxing mode                      : Packed bitstream
Codec ID                         : XVID
Codec ID/Hint                    : XviD
Duration                         : 1h 31mn
Bit rate                         : 1 835 Kbps
Width                            : 720 pixels
Height                           : 400 pixels
Display aspect ratio             : 16/9
Frame rate                       : 23.976 fps
Resolution                       : 24 bits
Colorimetry                      : 4:2:0
Scan type                        : Progressive
Bits/(Pixel*Frame)               : 0.266
Stream size                      : 1.17 GiB (80%)
Writing library                  : XviD 64

Audio
ID                               : 1
Format                           : AC-3
Format/Info                      : Audio Coding 3
Codec ID                         : 2000
Duration                         : 1h 31mn
Bit rate mode                    : Constant
Bit rate                         : 448 Kbps
Channel(s)                       : 6 channels
Channel positions                : Front: L C R, Surround: L R, LFE
Sampling rate                    : 48.0 KHz
Stream size                      : 292 MiB (20%)
Alignment                        : Split accross interleaves
Interleave, duration             : 42 ms (1.00 video frame)
Interleave, preload duration     : 500 ms

Семпл: http://multi-up.com/840845

Релиз группы:

Доп. информация: Речь присутствует только в начале фильма, когда девушка приходит в цирк. Все остальное - полет фантазии постановщиков, который в переводе не нуждается.

picpicpic
Для увеличения картинки щелкните мышкой по превью

Этот торрент недоступен для скачивания без регистрации, однако доступен по публичной magnet-ссылке (источники с публичных трекеров). Перед использованием ссылки прочтите, пожалуйста Пользовательское соглашение, а также как можно дольше оставайтесь на раздаче! Для того, чтобы скачать сам торрент-файл (который видит больше источников), а также для того, чтобы поблагодарить релизера, вам необходимо зарегистрироваться. Если регистрироваться лень - вы можете также попробовать скачать релиз по нашим партнерским ссылкам ниже.

[underverse.su].t24864.torrent
Трекер: Зарегистрирован   [ 09.03.2013 13:31 ]  

Статус: проверено (by Паукан at 09.03.2013 14:56)
Поблагодарили: 1 человек
Тип торрента: публичный - доступные источники с открытых трекеров: 
Размер: 1,46 GB (занимает 0,33 DVDR, для записи нужно 1 болванка DVDR/RW)
 
 

Яндекс.Метрика powered by Sphinx


В Н И М А Н И Е
Сайт не распространяет и не хранит электронные версии произведений, а лишь бесплатно и без коммерческой выгоды (не требуя взамен платы,
SMS и т.д.) предоставляет доступ к создаваемому пользователями каталогу ссылок на торрент-файлы, которые содержат только списки хеш-сумм.
Убедительная просьба с жалобами обращаться напрямую к пользователю, разместившему торрент файл.

Вверх