Loading...
Error

Белые волки / Серии: 1-10(10) (Игорь Забара, Вячеслав Лавров) [2012., боевик, криминал, IPTVRip]

Статистика раздачи
Размер:  4,34 GB   |    Зарегистрирован:  3 года 8 месяцев   |    Скачан:  15 раз

Полного источника не было: 2 года

Сидов:  0  |  0 KB/s  ]   Личеров:  0  |  0 KB/s  ]

* - сиды/пиры с внешних источников

   
 
Автор Сообщение

nemos Пол:Муж

08-Мар-2013 16:58

Белые волки


Год выпуска: 2012
Жанр: боевик, криминал
Страна: Россия
Режиссер: Игорь Забара, Вячеслав Лавров
В ролях: Андрей Аверьянов, Денис Бобышев, Татьяна Калих, Максим Житник, Артем Бородич, Заза Чантурия, Александр Островский, Валентина Пугачёва, Фархад Махмудов, Георгий Пицхелаури
Сюжет фильма:
Офицеры группы спецназа «Белые волки» стоят на страже спокойствия и порядка в государстве. Они борются со злом во всех его проявлениях: их то направляют на захват группы наркоторговцев, то на обезвреживание спившегося и полубезумного отставного майора, ветерана войны в Чечне, убившего жену, соседку и взявшего в заложники двух маленьких девочек. «Белые волки» охотятся за беглыми преступниками и обезвреживают банды налетчиков и грабителей, обеспечивают безопасность важных свидетелей и освобождают заложников…


Качество видео: TVRip

Продолжительность: 00:46:16серия
Формат: AVI
Видео: XviD, 704x400, 1 081 kbps
Аудио: русский, MP3 2.0, 128 kbps

Код:

E:\С underverse-3 Фильмы\Белые волки  2013\Belye.volki.10.seriya.XviD.IPTVRip..avi
   General
      Complete name : E:\С underverse-3 Фильмы\Белые волки  2013\Belye.volki.10.seriya.XviD.IPTVRip..avi
      Format : AVI
      Format/Info : Audio Video Interleave
      File size : 422 MiB
      Duration : 48mn 16s
      Overall bit rate : 1 222 Kbps
      Writing application : MEncoder SVN-r33883(20110719-gcc4.5.2)
      Writing library : MPlayer
   Video #0
      ID : 0
      Format : MPEG-4 Visual
      Format profile : Advanced Simple@L5
      Format settings, BVOP : 2
      Format settings, QPel : No
      Format settings, GMC : No warppoints
      Format settings, Matrix : Default (H.263)
      Codec ID : XVID
      Codec ID/Hint : XviD
      Duration : 48mn 16s
      Bit rate : 1 081 Kbps
      Width : 704 pixels
      Height : 400 pixels
      Display aspect ratio : 16:9
      Original display aspect ratio : 16:9
      Frame rate : 23.976 fps
      Color space : YUV
      Chroma subsampling : 4:2:0
      Bit depth : 8 bits
      Scan type : Progressive
      Compression mode : Lossy
      Bits/(Pixel*Frame) : 0.160
      Stream size : 373 MiB (88%)
      Writing library : XviD 1.2.1 (UTC 2008-12-04)
   Audio #1
      ID : 1
      Format : MPEG Audio
      Format version : Version 1
      Format profile : Layer 3
      Mode : Joint stereo
      Mode extension : MS Stereo
      Codec ID : 55
      Codec ID/Hint : MP3
      Duration : 48mn 16s
      Bit rate mode : Constant
      Bit rate : 128 Kbps
      Channel(s) : 2 channels
      Sampling rate : 48.0 KHz
      Compression mode : Lossy
      Delay relative to video : 42ms
      Stream size : 44.2 MiB (10%)
      Alignment : Aligned on interleaves
      Interleave, duration : 24 ms (0.58 video frame)
      Interleave, preload duration : 504 ms
      Writing library : LAME3.98.4
Семпл: http://multi-up.com/840484

picpicpicpicpicpicpicpicpicpicpicpicpicpicpicpicpicpicpic
Для увеличения картинки щелкните мышкой по превью
Сериал который был выложен и зарегистрирован более двух месяцев назад буду раздавать с 23.00ч до 06.00ч утра ( вина в этом немоя, а пользователей которые неподдерживают раздачу)

Этот торрент недоступен для скачивания без регистрации, однако доступен по публичной magnet-ссылке (источники с публичных трекеров). Перед использованием ссылки прочтите, пожалуйста Пользовательское соглашение, а также как можно дольше оставайтесь на раздаче! Для того, чтобы скачать сам торрент-файл (который видит больше источников), а также для того, чтобы поблагодарить релизера, вам необходимо зарегистрироваться. Если регистрироваться лень - вы можете также попробовать скачать релиз по нашим партнерским ссылкам ниже.

[underverse.su].t24834.torrent
Трекер: Зарегистрирован   [ 08.03.2013 16:58 ]  

Статус: проверено (by Jimmy at 08.03.2013 17:34)
Поблагодарили: 1 человек
Тип торрента: публичный - доступные источники с открытых трекеров: 
Размер: 4,34 GB (занимает 0,99 DVDR, для записи нужно 1 болванка DVDR/RW)
 
 
Похожие темы
Форум Тема Автор Торрент Отв. Посл. сооб.
xUSSR сериалы Белые волки / Серии : 1-10 (10) (Игорь Забара, Вячеслав Лавров) [2012 г., боевик, криминальный фильм, SatRip] Чертёнок
15 | 4

0 | 1241

18

03.02.2013 23:36

xUSSR сериалы Белые волки [01-14 из 14] (Игорь Забара, Вячеслав Лавров) [2012 г., боевик, DVDRip] Чертёнок
5 | 1

0 | 1818

26

23.10.2013 14:12

xUSSR сериалы Белые волки 2 (1-12 серии из 12) (Александр Бурцев, Дмитрий Сошников) [ 2014 г., Боевик, SatRip] nemos
8 | 1

0 | 569

14

15.11.2014 20:18


Яндекс.Метрика powered by Sphinx


В Н И М А Н И Е
Сайт не распространяет и не хранит электронные версии произведений, а лишь бесплатно и без коммерческой выгоды (не требуя взамен платы,
SMS и т.д.) предоставляет доступ к создаваемому пользователями каталогу ссылок на торрент-файлы, которые содержат только списки хеш-сумм.
Убедительная просьба с жалобами обращаться напрямую к пользователю, разместившему торрент файл.

Вверх