Loading...
Error

Второй убойный / Серии: 1-16 (16) (Святослав Власов) [2013, Детектив, криминал, SATRip]

Статистика раздачи
Размер:  8,59 GB   |    Зарегистрирован:  3 года 8 месяцев   |    Скачан:  19 раз

Полного источника не было: 7 месяцев

Сидов:  0  |  0 KB/s  ]   Личеров:  0  |  0 KB/s  ]

* - сиды/пиры с внешних источников

   
 
Автор Сообщение

nemos Пол:Муж

07-Мар-2013 18:37


Год выпуска: 2013
Жанр: криминал, детектив
Страна: Россия
Режиссер: Святослав Власов
В ролях: Вадим Андреев, Алексей Матошин, Захар Ронжин, Сергей Быстрицкий, Сергей Ярмолюк, Юрий Ильин, Игорь Седов, Михаил Люлинецкий, Леонид Орлов, Михаил Шкамаридин
Сюжет фильма:
Немолодой начальник убойного отдела Алексей Витаев пользуется у коллег заслуженной славой. Въедливый и педантичный, он раскрывает даже те преступления, на которых многие давно бы поставили крест. Но однажды Витаев перешёл дорогу крупному чиновнику. В связи с этим было принято решение отправить опера на пенсию, а на его место быстро нашли «достойную» замену в лице бестолкового зятя высокого начальства.


Качество видео: SatRip

Продолжительность: 16x ~ 00:45:59
Формат: AVI
Видео: DivX, 704x400, 1 599 kbps
Аудио: русский, MP3 2.0, 128 kbps

Код:

E:\С underverse-3 Фильмы\Vtoroi.uboinyi.2013.SATRip\Vtoroi.uboinyi.16.2013.SATRip.avi
   General
      Complete name : E:\С underverse-3 Фильмы\Vtoroi.uboinyi.2013.SATRip\Vtoroi.uboinyi.16.2013.SATRip.avi
      Format : AVI
      Format/Info : Audio Video Interleave
      File size : 571 MiB
      Duration : 45mn 59s
      Overall bit rate : 1 737 Kbps
      Writing library : VirtualDub-MPEG2 build 24600/release
   Video #0
      ID : 0
      Format : MPEG-4 Visual
      Format profile : Simple@L3
      Format settings, BVOP : No
      Format settings, QPel : No
      Format settings, GMC : No warppoints
      Format settings, Matrix : Default (H.263)
      Codec ID : DX50
      Codec ID/Hint : DivX 5
      Duration : 45mn 59s
      Bit rate : 1 599 Kbps
      Width : 704 pixels
      Height : 400 pixels
      Display aspect ratio : 16:9
      Frame rate : 25.000 fps
      Color space : YUV
      Chroma subsampling : 4:2:0
      Bit depth : 8 bits
      Scan type : Progressive
      Compression mode : Lossy
      Bits/(Pixel*Frame) : 0.227
      Stream size : 526 MiB (92%)
      Writing library : XviD 1.2.1 (UTC 2008-12-04)
   Audio #1
      ID : 1
      Format : MPEG Audio
      Format version : Version 1
      Format profile : Layer 3
      Mode : Joint stereo
      Mode extension : MS Stereo
      Codec ID : 55
      Codec ID/Hint : MP3
      Duration : 45mn 59s
      Bit rate mode : Constant
      Bit rate : 128 Kbps
      Channel(s) : 2 channels
      Sampling rate : 48.0 KHz
      Compression mode : Lossy
      Stream size : 42.1 MiB (7%)
      Alignment : Split accross interleaves
      Interleave, duration : 40 ms (1.00 video frame)
      Interleave, preload duration : 500 ms
      Writing library : LAME3.98.2
Семпл: http://multi-up.com/840230

picpicpicpicpicpicpicpicpicpicpicpic
Для увеличения картинки щелкните мышкой по превью
Сериал который был выложен и зарегистрирован более двух месяцев назад буду раздавать с 23.00ч до 06.00ч утра ( вина в этом немоя, а пользователей которые неподдерживают раздачу)

Этот торрент недоступен для скачивания без регистрации, однако доступен по публичной magnet-ссылке (источники с публичных трекеров). Перед использованием ссылки прочтите, пожалуйста Пользовательское соглашение, а также как можно дольше оставайтесь на раздаче! Для того, чтобы скачать сам торрент-файл (который видит больше источников), а также для того, чтобы поблагодарить релизера, вам необходимо зарегистрироваться. Если регистрироваться лень - вы можете также попробовать скачать релиз по нашим партнерским ссылкам ниже.

[underverse.su].t24800.torrent
Трекер: Зарегистрирован   [ 07.03.2013 18:37 ]  

Статус: проверено (by Чертёнок at 08.03.2013 06:45)
Поблагодарили: пока никто не поблагодарил...
Тип торрента: публичный - доступные источники с открытых трекеров: 
Размер: 8,59 GB (занимает 1,96 DVDR, для записи нужно 2 болванки DVDR/RW)
 
 
Похожие темы
Форум Тема Автор Торрент Отв. Посл. сооб.
xUSSR сериалы Второй убойный 2 / Сезон 2 / Серии 1-16 (16) (Дмитрий Парменов) [2013 г., криминал, детектив, SatRip] Чертёнок
1 | 2

0 | 343

8

15.07.2013 10:08


Яндекс.Метрика powered by Sphinx


В Н И М А Н И Е
Сайт не распространяет и не хранит электронные версии произведений, а лишь бесплатно и без коммерческой выгоды (не требуя взамен платы,
SMS и т.д.) предоставляет доступ к создаваемому пользователями каталогу ссылок на торрент-файлы, которые содержат только списки хеш-сумм.
Убедительная просьба с жалобами обращаться напрямую к пользователю, разместившему торрент файл.

Вверх