Loading...
Error

Каратель: Территория войны / Punisher: War Zone (Лекси Александр) [2008 г., боевик, триллер, драма, криминал, BDRip] 2xMVO + Original HQ Underverse

Статистика раздачи
Размер:  2,18 GB   |    Зарегистрирован:  3 года 9 месяцев   |    Скачан:  103 раза
Сидов:  3  |  0 KB/s  ]   Личеров:  0  |  0 KB/s  ]

* - сиды/пиры с внешних источников

   
 
Автор Сообщение

HQ Underverse 

07-Мар-2013 12:29

Каратель: Территория войны / Punisher: War Zone


Год выпуска: 2008
Жанр: боевик, триллер, драма, криминал
Страна: США , Канада , Германия
Режиссер: Лекси Александр
В ролях: Рэй Стивенсон, Доминик Уэст, Даг Хатчисон, Колин Сэлмон, Уэйн Найт, Дэш Майок, Джули Бенц, Стефани Янушаускас, Марк Камачо, Романо Орзари
Сюжет фильма:
Главный герой захватывающего боевика, жесткий и беспощадный судья порядка Фрэнк Касл, которого все называют Каратель. Каждый день он ведет опасную войну с преступным миром. Фрэнк не знает жалости и собственными руками отправляет всех злых людей за решетку. Им движет месть и огромная жажда справедливости. В этот раз Каратель встретиться со своим самым главным врагом - Джигсо - маньяком, который держит целую армию психов и убийц. Но ФБР решило пресечь действия Карателя, создав отряд по его поимке.

  • Мировая премьера: 4 декабря 2008

/
Качество видео: BDRip [Punisher.War.Zone.2009.DUT.BluRay.1080p.AVC.TrueHD.5.1-NiBuRu]

Продолжительность: 01:42:42
Формат: avi
Видео: XviD, 720x304, 2249 kbps
Аудио #1: русский, многоголосый закадровый [профессиональный, R5, лицензия], AC3 5.1, 384 kbps
Аудио #2: английский, оригинал, AC3 5.1, 384 kbps
Аудио #3: русский, многоголосый закадровый [профессиональный, Киномания], AC3 5.1, 384 kbps (отдельным файлом)
Субтитры #1: внешние, SRT, русский Киномания
Субтитры #2: внешние, SRT, английский

Код:

General
Complete name                    : D:\Video\Movies\Releases\Punisher.War.Zone.2008.BDRip.XviD.AC3.Rus.MVO.Eng.O.HQ.Underverse.avi
Format                           : AVI
Format/Info                      : Audio Video Interleave
Format profile                   : OpenDML
File size                        : 2.18 GiB
Duration                         : 1h 42mn
Overall bit rate                 : 3 035 Kbps
Writing application              : VirtualDubMod 1.5.10.2 (build 2540/release)
Writing library                  : VirtualDubMod build 2540/release

Video
ID                               : 0
Format                           : MPEG-4 Visual
Format profile                   : Streaming Video@L1
Format settings, BVOP            : Yes
Format settings, QPel            : No
Format settings, GMC             : No warppoints
Format settings, Matrix          : Custom
Muxing mode                      : Packed bitstream
Codec ID                         : XVID
Codec ID/Hint                    : XviD
Duration                         : 1h 42mn
Bit rate                         : 2 249 Kbps
Width                            : 720 pixels
Height                           : 304 pixels
Display aspect ratio             : 2.35
Frame rate                       : 23.976 fps
Resolution                       : 24 bits
Colorimetry                      : 4:2:0
Scan type                        : Progressive
Bits/(Pixel*Frame)               : 0.429
Stream size                      : 1.61 GiB (74%)
Writing library                  : XviD 64

Audio #1
ID                               : 1
Format                           : AC-3
Format/Info                      : Audio Coding 3
Codec ID                         : 2000
Duration                         : 1h 42mn
Bit rate mode                    : Constant
Bit rate                         : 384 Kbps
Channel(s)                       : 6 channels
Channel positions                : Front: L C R, Surround: L R, LFE
Sampling rate                    : 48.0 KHz
Video delay                      : 12ms
Stream size                      : 282 MiB (13%)
Alignment                        : Split accross interleaves
Interleave, duration             : 42 ms (1.00 video frame)
Interleave, preload duration     : 500 ms
Title                            : Punisher.War.Zone.2008.Rus.MVO.AC3.5.1.384.kbps.HQ.Underverse.ac3

Audio #2
ID                               : 2
Format                           : AC-3
Format/Info                      : Audio Coding 3
Codec ID                         : 2000
Duration                         : 1h 42mn
Bit rate mode                    : Constant
Bit rate                         : 384 Kbps
Channel(s)                       : 6 channels
Channel positions                : Front: L C R, Surround: L R, LFE
Sampling rate                    : 48.0 KHz
Stream size                      : 282 MiB (13%)
Alignment                        : Split accross interleaves
Interleave, duration             : 42 ms (1.00 video frame)
Interleave, preload duration     : 500 ms
Title                            : Punisher.War.Zone.2008.Eng.O.AC3.5.1.384.kbps.HQ.Underverse.ac3

General
Complete name                    : D:\Video\Movies\Releases\Punisher.War.Zone.2008.BDRip.XviD.AC3.Rus.MVO.Eng.O.HQ.Underverse.Rus.MVO.ac3
Format                           : AC-3
Format/Info                      : Audio Coding 3
File size                        : 282 MiB
Duration                         : 1h 42mn
Overall bit rate                 : 384 Kbps

Audio
Format                           : AC-3
Format/Info                      : Audio Coding 3
Duration                         : 1h 42mn
Bit rate mode                    : Constant
Bit rate                         : 384 Kbps
Channel(s)                       : 6 channels
Channel positions                : Front: L C R, Surround: L R, LFE
Sampling rate                    : 48.0 KHz
Stream size                      : 282 MiB (100%)

Семпл: http://multi-up.com/839838

Релиз группы:

picpicpic
Для увеличения картинки щелкните мышкой по превью

Этот торрент недоступен для скачивания без регистрации, однако доступен по публичной magnet-ссылке (источники с публичных трекеров). Перед использованием ссылки прочтите, пожалуйста Пользовательское соглашение, а также как можно дольше оставайтесь на раздаче! Для того, чтобы скачать сам торрент-файл (который видит больше источников), а также для того, чтобы поблагодарить релизера, вам необходимо зарегистрироваться. Если регистрироваться лень - вы можете также попробовать скачать релиз по нашим партнерским ссылкам ниже.

[underverse.su].t24793.torrent
Трекер: Зарегистрирован   [ 07.03.2013 12:29 ]  

Статус: проверено (by Паукан at 07.03.2013 12:51)
Поблагодарили: 4 человека
Тип торрента: публичный - доступные источники с открытых трекеров: 
Размер: 2,18 GB (занимает 1/2 DVDR, для записи нужно 1 болванка DVDR/RW)
 
 

Яндекс.Метрика powered by Sphinx


В Н И М А Н И Е
Сайт не распространяет и не хранит электронные версии произведений, а лишь бесплатно и без коммерческой выгоды (не требуя взамен платы,
SMS и т.д.) предоставляет доступ к создаваемому пользователями каталогу ссылок на торрент-файлы, которые содержат только списки хеш-сумм.
Убедительная просьба с жалобами обращаться напрямую к пользователю, разместившему торрент файл.

Вверх