Loading...
Error

Когда я вырасту маленьким / Quand je serai petit (Жан-Поль Рув) [2012 г., драма, DVDRip] DVO + Original

Статистика раздачи
Размер:  835 MB   |    Зарегистрирован:  3 года 8 месяцев   |    Скачан:  18 раз

Полного источника не было: 2 года 1 месяц

Сидов:  0  |  0 KB/s  ]   Личеров:  0  |  0 KB/s  ]

* - сиды/пиры с внешних источников

   
 
Автор Сообщение

RG NewCinema 

07-Мар-2013 07:05

Когда я вырасту маленьким / Quand je serai petit


Год выпуска: 2012
Жанр: драма
Страна: Франция
Режиссер: Жан-Поль Рув
В ролях: Жан-Поль Рув, Бенуа Пульворд, Арли Жовер, Лиза Мартино, Миу-Миу, Клод Брассёр, Ксавье Бовуа, Жиль Леллуш, Мильян Шателейн, Лолита Оффенштейн
Сюжет фильма:
Во время поездки сорокалетний Маттиас по случайности замечает мальчишку, который удивительным образом похож на него в детском возрасте. Сильно потрясённый этой встречей он решает проследить за ребёнком и понять, кто он такой. То, что он откроет для себя, может полностью изменить его жизнь и баланс в семье. И если он сможет пересмотреть своё детство, возможно ли поменять ход событий и исправить допущенные тогда ошибки?

  • Мировая премьера: 9 июня 2012

|
Качество видео: DVDRip

Продолжительность: 01:33:07
Формат: AVI
Видео: XviD, 640х272, 919 kbps
Аудио #1: русский, двухголосый закадровый [любительский], AC3 2.0, 192 kbps
Аудио #2: французский, оригинал, MP3 2.0, 128 kbps

Код:

General
Complete name : F:\Автор 2\Когда я вырасту маленьким\Quand.Je.Serai.Petit.avi
Format : AVI
Format/Info : Audio Video Interleave
File size : 835 MiB
Duration : 1h 33mn
Overall bit rate : 1 254 Kbps
Writing application : VirtualDubMod 1.5.10.2 (build 2540/release)
Writing library : VirtualDubMod build 2540/release
Video
ID : 0
Format : MPEG-4 Visual
Format profile : Advanced Simple@L5
Format settings, BVOP : 2
Format settings, QPel : No
Format settings, GMC : No warppoints
Format settings, Matrix : Default (MPEG)
Codec ID : XVID
Codec ID/Hint : XviD
Duration : 1h 33mn
Bit rate : 919 Kbps
Width : 640 pixels
Height : 272 pixels
Display aspect ratio : 2.35:1
Frame rate : 25.000 fps
Color space : YUV
Chroma subsampling : 4:2:0
Bit depth : 8 bits
Scan type : Progressive
Compression mode : Lossy
Bits/(Pixel*Frame) : 0.211
Stream size : 612 MiB (73%)
Writing library : XviD 1.2.1 (UTC 2008-12-04)
Audio #1
ID : 1
Format : AC-3
Format/Info : Audio Coding 3
Mode extension : CM (complete main)
Codec ID : 2000
Duration : 1h 33mn
Bit rate mode : Constant
Bit rate : 192 Kbps
Channel(s) : 2 channels
Channel positions : Front: L R
Sampling rate : 48.0 KHz
Bit depth : 16 bits
Compression mode : Lossy
Stream size : 128 MiB (15%)
Alignment : Split accross interleaves
Interleave, duration : 40 ms (1.00 video frame)
Interleave, preload duration : 500 ms
Audio #2
ID : 2
Format : MPEG Audio
Format version : Version 1
Format profile : Layer 3
Codec ID : 55
Codec ID/Hint : MP3
Duration : 1h 33mn
Bit rate mode : Constant
Bit rate : 128 Kbps
Channel(s) : 2 channels
Sampling rate : 48.0 KHz
Compression mode : Lossy
Stream size : 85.3 MiB (10%)
Alignment : Aligned on interleaves
Interleave, duration : 40 ms (1.00 video frame)
Interleave, preload duration : 504 ms
Writing library : LAME3.99r
Encoding settings : -m s -V 4 -q 2 -lowpass 17 -b 128
Семпл: http://multi-up.com/839553

picpicpic
Для увеличения картинки щелкните мышкой по превью

Этот торрент недоступен для скачивания без регистрации, однако доступен по публичной magnet-ссылке (источники с публичных трекеров). Перед использованием ссылки прочтите, пожалуйста Пользовательское соглашение, а также как можно дольше оставайтесь на раздаче! Для того, чтобы скачать сам торрент-файл (который видит больше источников), а также для того, чтобы поблагодарить релизера, вам необходимо зарегистрироваться. Если регистрироваться лень - вы можете также попробовать скачать релиз по нашим партнерским ссылкам ниже.

[underverse.su].t24777.torrent
Трекер: Зарегистрирован   [ 07.03.2013 07:05 ]  

Статус: проверено (by garry at 07.03.2013 08:02)
Поблагодарили: 1 человек
Тип торрента: публичный - доступные источники с открытых трекеров: 
Размер: 835 MB (занимает 0,19 DVDR, для записи нужно 1 болванка DVDR/RW)
 
 
Похожие темы
Форум Тема Автор Торрент Отв. Посл. сооб.
Зарубежное кино [DVDRip, Low-Res HDRip, и т.д.] Когда я вырасту маленьким / Quand je serai petit (Жан-Поль Рув / Jean-Paul Rouve) [2012 г., драма, DVDRip] AVO (Штейн) + Original (Fre) 90ytr90
0 | 1

0 | 1130

8

17.02.2014 18:41

Зарубежное кино [DVDRip, Low-Res HDRip, и т.д.] Когда я вырасту маленьким / Quand je serai petit (Жан-Поль Рув / Jean-Paul Rouve) [2012 г., драма, DVDRip-AVC] AVO (Штейн) + Original (Fre) 90ytr90
11 | 0

0 | 1184

5

17.02.2014 18:47

AVGCorp Пол:Муж

27-Дек-2013 13:13

Примерный семьянин, преуспевающий ландшафтный дизайнер Матиуш, во время морского круиза, видит мальчика, потрясающего его сходством с самим собой в детстве.

Практически фотографическое сходство настолько выводит Матиуша из равновесия, что он предпринимает небольшое расследование, что бы выяснить, из какого города прибыла эта группа школьников.

Дальше - больше: приехав в этот город и найдя мальчика, Матиуш выясняет, что имена и фамилии мальчика, и его отца и матери, основные даты их жизни, полностью совпадают с его собственными, только со сдвигом (если брать даты, на пару десятков лет....

Камень на душе Матиуша: Его отец, когда самому Матиушу было ровно столько, сколько сегодня Матиушу "маленькому", умер от молниеносной формы опухоли мозга. И мама Матиуша, не желая травмировать мальчика, не сказала ему об этом, и не привезла ни в больницу к отцу, ни на похороны.

Матиуш считает, что этот случай оказал негативное влияние на его психику и его будущее. Он вторгается в жизнь семьи "маленького" Матиуша, в попытке что то исправить..... Он влюбляется в "маленького" Матиуша, поскольку невозможно не полюбить ребёнка, который - Ты, но ещё не проживший твою жизнь и не совершивший твоих ошибок...

Очень красивая мистическая драма, которая могла появиться только в Европе. Не смотря на французское происхождение, отвечает, скорее, лучшим образцам скандинавской подростковой драмы.
Вообщем - усиленно рекомендую!!!

Яндекс.Метрика powered by Sphinx


В Н И М А Н И Е
Сайт не распространяет и не хранит электронные версии произведений, а лишь бесплатно и без коммерческой выгоды (не требуя взамен платы,
SMS и т.д.) предоставляет доступ к создаваемому пользователями каталогу ссылок на торрент-файлы, которые содержат только списки хеш-сумм.
Убедительная просьба с жалобами обращаться напрямую к пользователю, разместившему торрент файл.

Вверх