Loading...
Error

Любовь на кончиках пальцев / Populaire (Режис Ройнсар) [2012 г., мелодрама, комедия, DVDRip] MVO

Статистика раздачи
Размер:  1,46 GB   |    Зарегистрирован:  3 года 9 месяцев   |    Скачан:  39 раз

Полного источника не было: 6 часов

Сидов:  0  |  0 KB/s  ]   Личеров:  0  |  0 KB/s  ]

* - сиды/пиры с внешних источников

   
 
Автор Сообщение

RG NewCinema 

05-Мар-2013 19:49

Любовь на кончиках пальцев / Populaire


Год выпуска: 2012
Жанр: мелодрама, комедия
Страна: Франция
Режиссер: Режис Ройнсар
В ролях: Ромен Дюрис, Дебора Франсуа, Беренис Бежо, Шон Бенсон, Мелани Бернье, Николя Бедо, Миу-Миу, Эдди Митчелл, Фредерик Пьеро, Федор Аткин
Сюжет фильма:
Роза живет в провинции со своим отцом, обручена с самым выгодным женихом их городка, и казалось бы, ей предначертана тихая спокойная жизнь домохозяйки. Однако все меняется, когда она встречает красавца Луиса: вместе им предстоит покорить весь мир.

  • Мировая премьера: 17 ноября 2012
  • Российская премьера: 31 января 2013, «Премиум Фильм»

/
Качество видео: DVDRip

Продолжительность: 01:48:13
Формат: AVI
Видео: XviD, 720x304, 1470 kbps
Аудио: русский, многоголосый закадровый [профессиональный], AC3 5.1, 448 kbps

Код:

General
Complete name : Lubov.na.konchikah.paltsev.2012.P.DVDRip_[Youtracker]_by_avproh.avi
Format : AVI
Format/Info : Audio Video Interleave
File size : 1.46 GiB
Duration : 1h 48mn
Overall bit rate : 1 927 Kbps
Writing application : VirtualDubMod 1.5.10.3 | www.virtualdub-fr.org || (build 2550/release)
Writing library : VirtualDubMod build 2550/release

Video
ID : 0
Format : MPEG-4 Visual
Format profile : Advanced Simple@L5
Format settings, BVOP : 1
Format settings, QPel : No
Format settings, GMC : No warppoints
Format settings, Matrix : Custom
Codec ID : XVID
Codec ID/Hint : XviD
Duration : 1h 48mn
Bit rate : 1 470 Kbps
Width : 720 pixels
Height : 304 pixels
Display aspect ratio : 2.35:1
Frame rate : 25.000 fps
Color space : YUV
Chroma subsampling : 4:2:0
Bit depth : 8 bits
Scan type : Progressive
Compression mode : Lossy
Bits/(Pixel*Frame) : 0.269
Stream size : 1.11 GiB (76%)
Writing library : XviD 64

Audio
ID : 1
Format : AC-3
Format/Info : Audio Coding 3
Mode extension : CM (complete main)
Format settings, Endianness : Big
Codec ID : 2000
Duration : 1h 48mn
Bit rate mode : Constant
Bit rate : 448 Kbps
Channel(s) : 6 channels
Channel positions : Front: L C R, Side: L R, LFE
Sampling rate : 48.0 KHz
Bit depth : 16 bits
Compression mode : Lossy
Stream size : 347 MiB (23%)
Alignment : Split accross interleaves
Interleave, duration : 40 ms (1.00 video frame)
Interleave, preload duration : 500 ms
Семпл: http://multi-up.com/839205

picpicpic
Для увеличения картинки щелкните мышкой по превью

Этот торрент недоступен для скачивания без регистрации, однако доступен по публичной magnet-ссылке (источники с публичных трекеров). Перед использованием ссылки прочтите, пожалуйста Пользовательское соглашение, а также как можно дольше оставайтесь на раздаче! Для того, чтобы скачать сам торрент-файл (который видит больше источников), а также для того, чтобы поблагодарить релизера, вам необходимо зарегистрироваться. Если регистрироваться лень - вы можете также попробовать скачать релиз по нашим партнерским ссылкам ниже.

[underverse.su].t24749.torrent
Трекер: Зарегистрирован   [ 05.03.2013 19:49 ]  

Статус: проверено (by Паукан at 06.03.2013 07:39)
Поблагодарили: 2 человека
Тип торрента: публичный - доступные источники с открытых трекеров: 
Размер: 1,46 GB (занимает 1/3 DVDR, для записи нужно 1 болванка DVDR/RW)
 
 
Похожие темы
Форум Тема Автор Торрент Отв. Посл. сооб.
Зарубежное кино [DVDRip, Low-Res HDRip, и т.д.] Любовь на кончиках пальцев / Populaire (Режис Ройнсар) [2012 г., мелодрама, комедия, HDRip] MVO + Fre 90ytr90
66 | 3

0 | 766

12

31.03.2013 09:10

Зарубежное кино [DVDRip, Low-Res HDRip, и т.д.] Любовь на траве / L'amour par terre (Жак Риветт / Jacques Rivette) [1984 г., фэнтези, драма, мелодрама, комедия, DVDRip] MVO + Original (Fre) + Sub (Rus) 90ytr90
0 | 0

0 | 290

4

21.11.2014 11:36

Наше кино [DVDRip, Low-Res HDRip, и т.д.] Любовь на четырех колесах (Сергей Влади) [2015 г., мелодрама, HDTVRip] makkol
27 | 0

0 | 540

30

04.10.2015 13:58

xUSSR сериалы Любовь на миллион / Серии 1-8 (8) (Павел Снисаренко) [2013 г., Мелодрама, SatRip] Чертёнок
3 | 1

0 | 634

11

11.07.2013 20:18

Наше кино [HDDVDRip / BDRip / WEB-DL / HDTV 1080/720р] Любовь на четырех колесах (Сергей Влади) [2015 г., мелодрама, HDTVRip 1080i] makkol
8 | 0

0 | 469

12

04.10.2015 14:10

Архив Любовь на сене (Валерий Чиков, Сайдо Курбанов) [2009 г., мелодрама, DVD-5] andrej-ku
0 | 0

3 | 2184

0

12.11.2010 23:48


Яндекс.Метрика powered by Sphinx


В Н И М А Н И Е
Сайт не распространяет и не хранит электронные версии произведений, а лишь бесплатно и без коммерческой выгоды (не требуя взамен платы,
SMS и т.д.) предоставляет доступ к создаваемому пользователями каталогу ссылок на торрент-файлы, которые содержат только списки хеш-сумм.
Убедительная просьба с жалобами обращаться напрямую к пользователю, разместившему торрент файл.

Вверх