Loading...
Error

Евангелион 1.11: Ты (не) один / Evangelion 1.0: You Are (Not) Alone / Evangerion shin gekijoban: Jo (Масаюки) [2007 г., научная фантастика, механика, BDRip 720p] Dub + Original

Статистика раздачи
Размер:  4,68 GB   |    Зарегистрирован:  4 года 2 месяца   |    Скачан:  0 раз

Полного источника не было: 4 года 1 месяц

Сидов:  0  |  0 KB/s  ]   Личеров:  0  |  0 KB/s  ]

* - сиды/пиры с внешних источников

   
 
Автор Сообщение

vova2112 Пол:Муж

03-Мар-2013 21:07

Евангелион 1.11: Ты (не) один / Evangelion 1.0: You Are (Not) Alone / Evangerion shin gekijoban: Jo


Жанры: научная фантастика, механика
Тип: Movie
Страна: Япония
Время выхода: 2007 г.
Режиссер: Масаюки
Студия: Khara Corporation

Сюжет аниме: Прошло 15 лет после загадочной глобальной катастрофы, поставившей человечество на грань выживания. Но оставшихся в живых впереди ждут еще более страшные испытания... Землю атакуют "Ангелы", загадочные гигантские существа, появившиеся неизвестно откуда. Единственное оружие на планете, способное им противостоять - роботы серии "Евангелион", созданные при помощи передовых биотехнологий...
|
Качество видео: BDRip 720p
Продолжительность: 01:40:58
Видео: x264, 1280x720, 4544 kbps
Аудио #1: русский, дублированный, AC3 5.1, 448 kbps
Аудио #2: японский, оригинал, DTS 5.1, 1509 kbps
Субтитры #1: тип: вшитые отключаемые, русский Forced, формат: SRT
Субтитры #2: тип: вшитые отключаемые, русский Full, формат: SRT

Код:

Complete name                    : F:\VideoTemp\Anime\Евангелион 1.11 Ты (не) одинок.mkv
Format                           : Matroska
File size                        : 4.68 GiB
Duration                         : 1h 40mn
Overall bit rate                 : 6 634 Kbps
Encoded date                     : UTC 2012-06-06 16:13:38
Writing application              : mkvmerge v5.4.0 ('Piper') built on Mar 10 2012 13:34:39
Writing library                  : libebml v1.2.3 + libmatroska v1.3.0

Video
ID                               : 1
Format                           : AVC
Format/Info                      : Advanced Video Codec
Format profile                   : High@L4.1
Format settings, CABAC           : Yes
Format settings, ReFrames        : 8 frames
Muxing mode                      : Container profile=Unknown@4.1
Codec ID                         : V_MPEG4/ISO/AVC
Duration                         : 1h 40mn
Bit rate                         : 4 545 Kbps
Width                            : 1 280 pixels
Height                           : 720 pixels
Display aspect ratio             : 16/9
Frame rate                       : 23.976 fps
Resolution                       : 24 bits
Colorimetry                      : 4:2:0
Scan type                        : Progressive
Bits/(Pixel*Frame)               : 0.206
Stream size                      : 3.20 GiB (68%)
Title                            : Евангелион 1.0 - Ты (не) одинок
Writing library                  : x264 core 00000000000000000
Encoding settings                : 0
Language                         : Japanese

Audio #1
ID                               : 2
Format                           : AC-3
Format/Info                      : Audio Coding 3
Codec ID                         : A_AC3
Duration                         : 1h 40mn
Bit rate mode                    : Constant
Bit rate                         : 448 Kbps
Channel(s)                       : 6 channels
Channel positions                : Front: L C R, Surround: L R, LFE
Sampling rate                    : 48.0 KHz
Stream size                      : 324 MiB (7%)
Title                            : Дублированный (Reanimedia)
Language                         : Russian

Audio #2
ID                               : 3
Format                           : DTS
Format/Info                      : Digital Theater Systems
Format profile                   : ES
Codec ID                         : A_DTS
Duration                         : 1h 40mn
Bit rate mode                    : Constant
Bit rate                         : 1 510 Kbps
Channel(s)                       : 7 channels
Channel positions                : Front: L C R, Rear: L C R, LFE
Sampling rate                    : 48.0 KHz
Resolution                       : 24 bits
Stream size                      : 1.06 GiB (23%)
Title                            : Оригинальный
Language                         : Japanese

Text #1
ID                               : 4
Format                           : UTF-8
Codec ID                         : S_TEXT/UTF8
Codec ID/Info                    : UTF-8 Plain Text
Title                            : Форсированные (Reanimedia)
Language                         : Russian

Text #2
ID                               : 5
Format                           : UTF-8
Codec ID                         : S_TEXT/UTF8
Codec ID/Info                    : UTF-8 Plain Text
Title                            : Полные (Reanimedia)
Language                         : Russian
picpicpic
Для увеличения картинки щелкните мышкой по превью

Этот торрент недоступен для скачивания без регистрации, однако доступен по публичной magnet-ссылке (источники с публичных трекеров). Перед использованием ссылки прочтите, пожалуйста Пользовательское соглашение, а также как можно дольше оставайтесь на раздаче! Для того, чтобы скачать сам торрент-файл (который видит больше источников), а также для того, чтобы поблагодарить релизера, вам необходимо зарегистрироваться. Если регистрироваться лень - вы можете также попробовать скачать релиз по нашим партнерским ссылкам ниже.

[underverse.su].t24709.torrent
Трекер: Зарегистрирован   [ 04.03.2013 13:23 ]  

Статус: проверено (by garry at 04.03.2013 15:46)
Поблагодарили: пока никто не поблагодарил...
Тип торрента: публичный - доступные источники с открытых трекеров: 
Размер: 4,68 GB (занимает 1,07 DVDR, для записи нужно 2 болванки DVDR/RW)
 
 
Похожие темы
Форум Тема Автор Торрент Отв. Посл. сооб.
Архив Евангелион по-новому (фильм второй) / Evangelion: 2.0 You Can [Not] Advance (Масаюки)[RUS(int), JAP][2009, драма, фантастика, меха, BDrip] Hitman
0 | 0

1 | 1547

0

05.11.2011 14:45

Архив Евангелион нового поколения / Evangelion Neon Genesis / Shinseiki Evangelion / TV-series, 1-26 из 26 (Анно Хидэаки) [1995 г., драма, фантастика, меха, 6 х DVD-9] Печаль'ka
0 | 0

1 | 2765

1

17.02.2011 14:46



Последний раз редактировалось: vova2112 (04.03.2013 13:23), всего редактировалось 1 раз

04-Мар-2013 06:37

Топик был перенесен из форума Аниме HQ в форум Аниме HD-Video


gari
 

Яндекс.Метрика powered by Sphinx


В Н И М А Н И Е
Сайт не распространяет и не хранит электронные версии произведений, а лишь бесплатно и без коммерческой выгоды (не требуя взамен платы,
SMS и т.д.) предоставляет доступ к создаваемому пользователями каталогу ссылок на торрент-файлы, которые содержат только списки хеш-сумм.
Убедительная просьба с жалобами обращаться напрямую к пользователю, разместившему торрент файл.

Вверх