Loading...
Error

Начало / Inception (Кристофер Нолан) [2010 г., фантастика, драма, боевик, детектив, BDRip]

Статистика раздачи
Размер:  2,9 GB   |    Зарегистрирован:  3 года 9 месяцев   |    Скачан:  7 раз

Полного источника не было: 2 года 2 месяца

Сидов:  0  |  0 KB/s  ]   Личеров:  0  |  0 KB/s  ]

* - сиды/пиры с внешних источников

   
 
Автор Сообщение

olleg Пол:Муж

02-Мар-2013 21:02

Начало / Inception


Год выпуска: 2010
Жанр: фантастика, драма, боевик, детектив
Страна: США , Великобритания
Режиссер: Кристофер Нолан
В ролях: Кен Ватанабе, Леонардо ДиКаприо, Эллен Пэйдж, Дилип Рао, Джозеф Гордон-Левитт, Пит Постлетуэйт, Киллиан Мёрфи, Марион Котийяр, Том Харди, Том Беренджер
Сюжет фильма:
В основе сюжета фильма лежит идея осознанных сновидений. Есть особая технология, позволяющая людям переходить в мир сновидений, где значительное место занимают неограниченные возможности, и мечты превращаются в своеобразную реальность. Главный герой картины – вор. Только есть существенное различие между ним и ему подобными. Он крадёт не деньги, а ценную информацию из чужих сновидений. При выполнении очередного задания что-то пошло не так. Обернулось не в его пользу. Его же цель даёт ему задание совершенно иного характера. Теперь он обязан не украсть идею, а внедрить - убедить наследника многомиллионной корпорации её развалить. Задача сложная, но как оказалось вполне осуществимая.
Этот фильм заставляет думать. На протяжении двух с половиной часов невольно находишься в напряжении. А развязка шокирует.

  • Мировая премьера: 8 июля 2010
  • Российская премьера: 22 июля 2010

Качество видео: BDRip

Продолжительность: 02:28:07
Формат: avi
Видео: XviD, 720x304, 1892 kbps
Аудио #1: русский, дублированный, AC3 5.1, 448 kbps
Аудио #2: английский, оригинал, AC3 5.1, 448 kbps

Код:

Complete name                    : D:\Фильмы\01_Смотрел\Начало.2010_5+.avi
Format                           : AVI
Format/Info                      : Audio Video Interleave
Format profile                   : OpenDML
File size                        : 2.90 GiB
Duration                         : 2h 28mn
Overall bit rate                 : 2 805 Kbps
Movie name                       : Начало / Inception (2010) BDRip
Director                         : xxL
Writing application              : VirtualDubMod 1.5.10.2 (build 2542/release)
Copyright                        : http://forum.hqclub.net/
Comment                          : R.G. HQCLUB

Video
ID                               : 0
Format                           : MPEG-4 Visual
Format profile                   : Streaming Video@L1
Format settings, BVOP            : Yes
Format settings, QPel            : No
Format settings, GMC             : No warppoints
Format settings, Matrix          : Custom
Codec ID                         : XVID
Codec ID/Hint                    : XviD
Duration                         : 2h 28mn
Bit rate                         : 1 893 Kbps
Width                            : 720 pixels
Height                           : 304 pixels
Display aspect ratio             : 2.35
Frame rate                       : 23.976 fps
Resolution                       : 24 bits
Colorimetry                      : 4:2:0
Scan type                        : Progressive
Bits/(Pixel*Frame)               : 0.361
Stream size                      : 1.96 GiB (67%)
Writing library                  : XviD 1.2.1 (UTC 2008-12-04)

Audio #1
ID                               : 1
Format                           : AC-3
Format/Info                      : Audio Coding 3
Codec ID                         : 2000
Duration                         : 2h 28mn
Bit rate mode                    : Constant
Bit rate                         : 448 Kbps
Channel(s)                       : 6 channels
Channel positions                : Front: L C R, Surround: L R, LFE
Sampling rate                    : 48.0 KHz
Stream size                      : 475 MiB (16%)
Alignment                        : Split accross interleaves
Interleave, duration             : 42 ms (1.00 video frame)
Interleave, preload duration     : 500 ms

Audio #2
ID                               : 2
Format                           : AC-3
Format/Info                      : Audio Coding 3
Codec ID                         : 2000
Duration                         : 2h 28mn
Bit rate mode                    : Constant
Bit rate                         : 448 Kbps
Channel(s)                       : 6 channels
Channel positions                : Front: L C R, Surround: L R, LFE
Sampling rate                    : 48.0 KHz
Stream size                      : 475 MiB (16%)
Alignment                        : Split accross interleaves
Interleave, duration             : 42 ms (1.00 video frame)
Interleave, preload duration     : 500 ms
pic pic pic pic pic pic
Для увеличения картинки щелкните мышкой по превью

Этот торрент недоступен для скачивания без регистрации, однако доступен по публичной magnet-ссылке (источники с публичных трекеров). Перед использованием ссылки прочтите, пожалуйста Пользовательское соглашение, а также как можно дольше оставайтесь на раздаче! Для того, чтобы скачать сам торрент-файл (который видит больше источников), а также для того, чтобы поблагодарить релизера, вам необходимо зарегистрироваться. Если регистрироваться лень - вы можете также попробовать скачать релиз по нашим партнерским ссылкам ниже.

[underverse.su].t24692.torrent
Трекер: Зарегистрирован   [ 02.03.2013 21:02 ]  

Статус: проверено (by Паукан at 02.03.2013 21:45)
Поблагодарили: пока никто не поблагодарил...
Тип торрента: публичный - доступные источники с открытых трекеров: 
Размер: 2,9 GB (занимает 2/3 DVDR, для записи нужно 1 болванка DVDR/RW)
 
 
Похожие темы
Форум Тема Автор Торрент Отв. Посл. сооб.
Зарубежное кино [DVDRip, Low-Res HDRip, и т.д.] Начало / Inception (Кристофер Нолан ) [2010 г., фантастика, боевик, триллер, драма, детекти , HDRip] GanibalKing
0 | 0

0 | 1024

43

27.11.2010 08:39

Зарубежное кино [DVDRip, Low-Res HDRip, и т.д.] Начало / Inception (Кристофер Нолан) [2010 г., Фантастика, боевик, триллер, драма, детектив, HDRip] zaic1599
0 | 0

1 | 744

5

13.12.2010 14:23

Зарубежное кино [DVDRip, Low-Res HDRip, и т.д.] Начало / Inception (Кристофер Нолан / Christopher Nolan) [2010 г., фантастика, боевик, триллер, драма, детектив, BDRip] Dub + Original Legi@ner
10 | 0

2 | 2832

49

09.12.2013 18:37

Зарубежное кино HQ Начало / Inception (Кристофер Нолан) [2010 г., фантастика, боевик, триллер, драма, детектив, HDRip] (Rus, Ukr, Eng) HQ Underverse HQ Underverse
1 | 0

2 | 1187

37

16.09.2013 14:46

Зарубежное кино [DVD / HDDVD / BD / Remux] Начало / Inception (Кристофер Нолан) [2010 г., фантастика, боевик, триллер, драма, детектив, BD-Remux] Dub + DVO + Dub + Original ryzhkovroman
0 | 0

4 | 1210

0

16.02.2013 17:56

Зарубежное кино [DVD / HDDVD / BD / Remux] Начало / Inception (Кристофер Нолан / Christopher Nolan) [2010, США, Великобритания, фантастика, боевик, триллер, драма, детектив, BDRemux 1080p] Dub + 2xDVO + 2xAVO + Dub Ukr + Original Eng + Subs... uzi2009
34 | 1

0 | 1000

10

11.09.2014 10:03

Зарубежное кино [HDDVDRip / BDRip / WEB-DL / HDTV 1080/720р] Начало / Inception (Кристофер Нолан) [2010 г., фантастика, боевик, триллер, драма, детектив, BDRip] Caribou
3 | 0

1 | 1284

51

03.04.2011 12:24

Зарубежное кино [HDDVDRip / BDRip / WEB-DL / HDTV 1080/720р] Начало / Inception (Кристофер Нолан / Christopher Nolan) [2010, США, Великобритания, фантастика, боевик, триллер, драма, BDRip 1080p] Dub + 2x DVO + 2x AVO + Original eng + Sub rus, eng uzi2009
2 | 0

2 | 667

13

20.03.2014 06:14

Архив Начало / Inception (Кристофер Нолан ) [2010 г., боевик, фантастика, триллер, драма, детектив, DVD-9] SKRiptus
0 | 0

2 | 1709

0

14.01.2012 21:23

garry Пол:Муж

03-Мар-2013 06:31

olleg
на будущее - скриншоты лучше делать .png (плееры это поддерживают), а то по таким скриншотам .jpg качество УГ

добавлено спустя 9 минут 47 секунд:

Цитата:

Начало.2010_5+.avi
это что? Ваши личные оценки? :D

Яндекс.Метрика powered by Sphinx


В Н И М А Н И Е
Сайт не распространяет и не хранит электронные версии произведений, а лишь бесплатно и без коммерческой выгоды (не требуя взамен платы,
SMS и т.д.) предоставляет доступ к создаваемому пользователями каталогу ссылок на торрент-файлы, которые содержат только списки хеш-сумм.
Убедительная просьба с жалобами обращаться напрямую к пользователю, разместившему торрент файл.

Вверх