Loading...
Error

Я - Брюс Ли / I Am Bruce Lee [2011 г., документальный, биография, IPTVRip] студийный [Rus] ("Кириллица")

Статистика раздачи
Размер:  1,55 GB   |    Зарегистрирован:  3 года 9 месяцев   |    Скачан:  31 раз

Полного источника не было: 6 дней

Сидов:  0  |  0 KB/s  ]   Личеров:  0  |  0 KB/s  ]

* - сиды/пиры с внешних источников

   
 
Автор Сообщение

Доктор Ватсон Пол:Муж

02-Мар-2013 08:41

Я - Брюс Ли / I Am Bruce Lee


Год выпуска: 2011
Жанр: документальный, биография
Страна: Канада
Режиссер: Пит МакКормак / Pete McCormack
Сюжет фильма:
Этот документальный фильм содержит множество редких фотографий и интервью Брюса Ли. Великие атлеты, актёры, режиссёры и продюсеры делятся своими воспоминаниями о нём.
Качество видео: IPTVRip

Продолжительность: 01:27:32
Формат: AVI
Видео: XviD, 640x480, (4x3), ~2400 kbps
Аудио: русский, одноголосый закадровый [студийный (студия "Кириллица")], MP3 (mono), 128 kbps

Код:

Общее
Полное имя : ё:\I'm Bruce Lee.2011.IPTVRip\I'm Bruce Lee (e1 from 2).2011.Xvid.IPTVRip.avi
Формат : AVI
Формат/Информация : Audio Video Interleave
Размер файла : 793 Мбайт
Продолжительность : 43 м.
Общий поток : 2524 Кбит/сек
Название фильма : I'm Bruce Lee (episode 1).2011
Библиотека кодирования : VirtualDub build 32507/release
Правообладатель : Discovery Channel
Примечание : IPTVRip by Smeagol6666 (10.02.2013)

Видео
Идентификатор : 0
Формат : MPEG-4 Visual
Профиль формата : Advanced Simple@L5
Параметр BVOP формата : 2
Параметр QPel формата : Нет
Параметр GMC формата : Без точки перехода
Параметр матрицы формата : Default (H.263)
Режим смешивания : Сжатый битовый поток
Идентификатор кодека : XVID
Идентификатор кодека/Подсказка : XviD
Продолжительность : 43 м.
Битрейт : 2386 Кбит/сек
Ширина : 640 пикселей
Высота : 480 пикселей
Соотношение сторон : 4:3
Частота кадров : 25,000 кадров/сек
Цветовое пространство : YUV
Субдискретизация насыщенности : 4:2:0
Битовая глубина : 8 бит
Тип развёртки : Прогрессивная
Метод сжатия : С потерями
Бит/(Пиксели*Кадры) : 0.311
Размер потока : 749 Мбайт (95%)
Библиотека кодирования : XviD 1.1.0 (UTC 2005-11-22)

Аудио
Идентификатор : 1
Формат : MPEG Audio
Версия формата : Version 1
Профиль формата : Layer 3
Режим : Joint stereo
Идентификатор кодека : 55
Идентификатор кодека/Подсказка : MP3
Продолжительность : 43 м.
Вид битрейта : Постоянный
Битрейт : 128 Кбит/сек
Каналы : 2 канала
Частота : 48,0 КГц
Метод сжатия : С потерями
Размер потока : 40,2 Мбайт (5%)
Выравнивание : Разделение по промежуткам
Продолжительность промежутка : 40 мс. (1,00 видеокадр)
Время предзагрузки промежутка : 500 мс.

Код:

Общее
Полное имя : ё:\I'm Bruce Lee.2011.IPTVRip\I'm Bruce Lee (e2 from 2).2011.Xvid.IPTVRip.avi
Формат : AVI
Формат/Информация : Audio Video Interleave
Размер файла : 797 Мегабайт
Продолжительность : 43 м.
Общий поток : 2554 Кбит/сек
Фильм : I'm Bruce Lee (episode 2).2011
Библиотека кодирования : VirtualDub build 32507/release
Правообладатель : Discovery Channel
Примечание : IPTVRip by Smeagol6666 (15.02.2013)

Видео
Идентификатор : 0
Формат : MPEG-4 Visual
Профайл формата : Simple@L5
Параметры BVOP формата : Нет
Параметры QPel формата : Нет
Параметры GMC формата : Без точки перехода
Параметры матрицы формата : Default (H.263)
Идентификатор кодека : XVID
Идентификатор кодека/Подсказка : XviD
Продолжительность : 43 м.
Битрейт : 2416 Кбит/сек
Ширина : 640 пикс.
Высота : 480 пикс.
Соотношение кадра : 4:3
Частота кадров : 25,000 кадр/сек
Разрешение : 24 бит
Колориметрия : 4:2:0
Тип развёртки : Прогрессивная
Бит/(Пиксели*Кадры) : 0.315
Размер потока : 754 Мегабайт (95%)
Библиотека кодирования : XviD 64

Аудио
Идентификатор : 1
Формат : MPEG Audio
Версия формата : Version 1
Профайл формата : Layer 3
Format_Settings_Mode : Joint stereo / MS Stereo
Идентификатор кодека : 55
Идентификатор кодека/Подсказка : MP3
Продолжительность : 43 м.
Вид битрейта : Постоянный
Битрейт : 128 Кбит/сек
Канал(ы) : 2 канала(ов)
Частота : 48,0 КГц
Разрешение : 16 бит
Размер потока : 39,9 Мегабайт (5%)
Выравнивание : Разделение по промежуткам
Продолжительность промежутка : 40 мс. (1,00 видеокадр)
Время предзагрузки промежутка : 500 ms
Семпл: http://multi-up.com/829839

picpicpicpic
Для увеличения картинки щелкните мышкой по превью

Этот торрент недоступен для скачивания без регистрации, однако доступен по публичной magnet-ссылке (источники с публичных трекеров). Перед использованием ссылки прочтите, пожалуйста Пользовательское соглашение, а также как можно дольше оставайтесь на раздаче! Для того, чтобы скачать сам торрент-файл (который видит больше источников), а также для того, чтобы поблагодарить релизера, вам необходимо зарегистрироваться. Если регистрироваться лень - вы можете также попробовать скачать релиз по нашим партнерским ссылкам ниже.

[underverse.su].t24671.torrent
Трекер: Зарегистрирован   [ 02.03.2013 08:41 ]  

Статус: проверено (by Чертёнок at 02.03.2013 12:06)
Поблагодарили: 3 человека
Тип торрента: публичный - доступные источники с открытых трекеров: 
Размер: 1,55 GB (занимает 0,35 DVDR, для записи нужно 1 болванка DVDR/RW)
 
 

Яндекс.Метрика powered by Sphinx


В Н И М А Н И Е
Сайт не распространяет и не хранит электронные версии произведений, а лишь бесплатно и без коммерческой выгоды (не требуя взамен платы,
SMS и т.д.) предоставляет доступ к создаваемому пользователями каталогу ссылок на торрент-файлы, которые содержат только списки хеш-сумм.
Убедительная просьба с жалобами обращаться напрямую к пользователю, разместившему торрент файл.

Вверх