Loading...
Error

Тасманские дьяволы / Tasmanian Devils (Зэк Липовски / Zach Lipovsky) [2013, фантастика, HDTVRip] MVO

Статистика раздачи
Размер:  1,37 GB   |    Зарегистрирован:  3 года 9 месяцев   |    Скачан:  52 раза

Полного источника не было: 1 год 8 месяцев

Сидов:  0  |  0 KB/s  ]   Личеров:  0  |  0 KB/s  ]

* - сиды/пиры с внешних источников

   
 
Автор Сообщение

nemos Пол:Муж

28-Фев-2013 15:00

Тасманские дьяволы / Tasmanian Devils (2013)


Год выпуска: 2013
Жанр: фантастика
Страна: Канада
Режиссер: Зэк Липовски
В ролях: Дэника МакКеллар, Кеннет Митчелл, Майк Допуд, Роджер Р. Кросс, Аполо Оно, Рекха Шарма, Терри Чен, Джозеф Аллан Сазерленд, Скотт МакНилДжулия Стоун,
Сюжет фильма:
Шестеро друзей-парашютистов нарушают правила во время прыжков с парашютом, в результате чего оказываются в неизвестной области острова Тасмания, где сталкиваются с мутировавшими тасманскими дьяволами.

  • Мировая премьера: 3 ноября 2012

Качество видео: HDTVRip

Продолжительность: 01:26:00
Формат: AVI
Видео: XviD, 708x400, 2 005 kbps
Аудио: русский, многоголосый закадровый [профессиональный], AC3 2.0, 256 kbps

Код:

E:\С underverse-3 Фильмы\Tomanskie.djyavoly.2013.P.HDTVRip.avi
   General
      Complete name : E:\С underverse-3 Фильмы\Tomanskie.djyavoly.2013.P.HDTVRip.avi
      Format : AVI
      Format/Info : Audio Video Interleave
      File size : 1.37 GiB
      Duration : 1h 26mn
      Overall bit rate : 2 271 Kbps
      Writing application : VirtualDubMod 1.5.10.2 (build 2540/release)
      Writing library : VirtualDubMod build 2540/release
   Video #0
      ID : 0
      Format : MPEG-4 Visual
      Format profile : Advanced Simple@L5
      Format settings, BVOP : 2
      Format settings, QPel : No
      Format settings, GMC : No warppoints
      Format settings, Matrix : Default (H.263)
      Muxing mode : Packed bitstream
      Codec ID : XVID
      Codec ID/Hint : XviD
      Duration : 1h 26mn
      Bit rate : 2 005 Kbps
      Width : 708 pixels
      Height : 400 pixels
      Display aspect ratio : 16:9
      Frame rate : 25.000 fps
      Color space : YUV
      Chroma subsampling : 4:2:0
      Bit depth : 8 bits
      Scan type : Progressive
      Compression mode : Lossy
      Bits/(Pixel*Frame) : 0.283
      Stream size : 1.21 GiB (88%)
      Writing library : XviD 64
   Audio #1
      ID : 1
      Format : AC-3
      Format/Info : Audio Coding 3
      Mode extension : CM (complete main)
      Format settings, Endianness : Big
      Codec ID : 2000
      Duration : 1h 26mn
      Bit rate mode : Constant
      Bit rate : 256 Kbps
      Channel(s) : 2 channels
      Channel positions : Front: L R
      Sampling rate : 48.0 KHz
      Bit depth : 16 bits
      Compression mode : Lossy
      Stream size : 159 MiB (11%)
      Alignment : Split accross interleaves
      Interleave, duration : 40 ms (1.00 video frame)
      Interleave, preload duration : 500 ms
Семпл: http://multi-up.com/836873

picpicpicpicpicpicpicpicpicpicpicpicpicpicpicpicpicpicpic
Для увеличения картинки щелкните мышкой по превью
Фильм который был выложен и зарегистрирован более двух месяцев назад буду раздавать с 23.00ч до 06.00ч утра ( вина в этом немоя, а пользователей которые неподдерживают раздачу)

Этот торрент недоступен для скачивания без регистрации, однако доступен по публичной magnet-ссылке (источники с публичных трекеров). Перед использованием ссылки прочтите, пожалуйста Пользовательское соглашение, а также как можно дольше оставайтесь на раздаче! Для того, чтобы скачать сам торрент-файл (который видит больше источников), а также для того, чтобы поблагодарить релизера, вам необходимо зарегистрироваться. Если регистрироваться лень - вы можете также попробовать скачать релиз по нашим партнерским ссылкам ниже.

[underverse.su].t24619.torrent
Трекер: Зарегистрирован   [ 28.02.2013 15:01 ]  

Статус: проверено (by Паукан at 28.02.2013 15:04)
Поблагодарили: 2 человека
Тип торрента: публичный - доступные источники с открытых трекеров: 
Размер: 1,37 GB (занимает 0,31 DVDR, для записи нужно 1 болванка DVDR/RW)
 
 


Последний раз редактировалось: nemos (04.10.2013 07:12), всего редактировалось 1 раз

28-Фев-2013 15:04

Топик был перенесен из форума Арт-хаус и Авторское кино в форум Зарубежное кино [DVDRip, Low-Res HDRip, и т.д.]


dj_maxx
 

Яндекс.Метрика powered by Sphinx


В Н И М А Н И Е
Сайт не распространяет и не хранит электронные версии произведений, а лишь бесплатно и без коммерческой выгоды (не требуя взамен платы,
SMS и т.д.) предоставляет доступ к создаваемому пользователями каталогу ссылок на торрент-файлы, которые содержат только списки хеш-сумм.
Убедительная просьба с жалобами обращаться напрямую к пользователю, разместившему торрент файл.

Вверх