Loading...
Error

Принцип Хабарова / Серии: 1-16(16) ( Андрей Щербинин) [2013, Детектив, криминал, SATRip]

Статистика раздачи
Размер:  8,26 GB   |    Зарегистрирован:  3 года 9 месяцев   |    Скачан:  24 раза

Полного источника не было: 2 года

Сидов:  0  |  0 KB/s  ]   Личеров:  0  |  0 KB/s  ]

* - сиды/пиры с внешних источников

   
 
Автор Сообщение

nemos Пол:Муж

25-Фев-2013 17:16


Год выпуска: 2013
Жанр: Детектив, криминал
Страна: Россия
Режиссер: Андрей Щербинин
В ролях: Александр Марушев, Даниил Страхов, Людмила Харитонова, Игорь Николаев (II), Екатерина Зорина, Александр Блок, Роман Грибков, Юлия Рудина, Михаил Батуев
Сюжет фильма:
На улице недалеко от своего дома от руки наёмного убийцы погибает близкий друг и заместитель начальника отдельной оперативно-следственной группы ГУВД полковника Хабарова. Его смерть заставляет полковника отложить на будущее планы выхода на пенсию. Расследование убийства он вынужден начать вместе с новым подчинённым - майором Ершовым, которого неуживчивому полковнику навязывает руководство.
Качество видео: SatRip

Продолжительность: 00:41:58серия
Формат: AVI
Видео: DivX, 704х400, 1 595kbps
Аудио: русский, MP3 2.0, 128kbps

Код:

E:\С underverse-3 Фильмы\Princip.Habarova\Princip.Habarova.16.avi
   General
      Complete name : E:\С underverse-3 Фильмы\Princip.Habarova\Princip.Habarova.16.avi
      Format : AVI
      Format/Info : Audio Video Interleave
      File size : 520 MiB
      Duration : 41mn 58s
      Overall bit rate : 1 733 Kbps
      Writing library : VirtualDub-MPEG2 build 24600/release
   Video #0
      ID : 0
      Format : MPEG-4 Visual
      Format profile : Simple@L3
      Format settings, BVOP : No
      Format settings, QPel : No
      Format settings, GMC : No warppoints
      Format settings, Matrix : Default (H.263)
      Codec ID : DX50
      Codec ID/Hint : DivX 5
      Duration : 41mn 58s
      Bit rate : 1 595 Kbps
      Width : 704 pixels
      Height : 400 pixels
      Display aspect ratio : 16:9
      Frame rate : 25.000 fps
      Color space : YUV
      Chroma subsampling : 4:2:0
      Bit depth : 8 bits
      Scan type : Progressive
      Compression mode : Lossy
      Bits/(Pixel*Frame) : 0.227
      Stream size : 479 MiB (92%)
      Writing library : XviD 1.2.1 (UTC 2008-12-04)
   Audio #1
      ID : 1
      Format : MPEG Audio
      Format version : Version 1
      Format profile : Layer 3
      Mode : Joint stereo
      Mode extension : MS Stereo
      Codec ID : 55
      Codec ID/Hint : MP3
      Duration : 41mn 58s
      Bit rate mode : Constant
      Bit rate : 128 Kbps
      Channel(s) : 2 channels
      Sampling rate : 48.0 KHz
      Compression mode : Lossy
      Stream size : 38.4 MiB (7%)
      Alignment : Split accross interleaves
      Interleave, duration : 40 ms (1.00 video frame)
      Interleave, preload duration : 500 ms
      Writing library : LAME3.98.2
Семпл: http://multi-up.com/835733

picpicpicpicpicpicpicpicpicpicpicpicpicpic
Для увеличения картинки щелкните мышкой по превью
Сериал который был выложен и зарегистрирован более двух месяцев назад буду раздавать с 23.00ч до 06.00ч утра ( вина в этом немоя, а пользователей которые неподдерживают раздачу)

Этот торрент недоступен для скачивания без регистрации, однако доступен по публичной magnet-ссылке (источники с публичных трекеров). Перед использованием ссылки прочтите, пожалуйста Пользовательское соглашение, а также как можно дольше оставайтесь на раздаче! Для того, чтобы скачать сам торрент-файл (который видит больше источников), а также для того, чтобы поблагодарить релизера, вам необходимо зарегистрироваться. Если регистрироваться лень - вы можете также попробовать скачать релиз по нашим партнерским ссылкам ниже.

[underverse.su].t24659.torrent
Трекер: Зарегистрирован   [ 01.03.2013 16:22 ]  

Статус: проверено (by Jimmy at 07.03.2013 15:04)
Поблагодарили: 3 человека
Тип торрента: публичный - доступные источники с открытых трекеров: 
Размер: 8,26 GB (занимает 1,89 DVDR, для записи нужно 2 болванки DVDR/RW)
 
 


Последний раз редактировалось: nemos (06.11.2014 12:28), всего редактировалось 8 раз(а)

nemos Пол:Муж

26-Фев-2013 14:47

Обновлен торрент файл (16) закончен

Яндекс.Метрика powered by Sphinx


В Н И М А Н И Е
Сайт не распространяет и не хранит электронные версии произведений, а лишь бесплатно и без коммерческой выгоды (не требуя взамен платы,
SMS и т.д.) предоставляет доступ к создаваемому пользователями каталогу ссылок на торрент-файлы, которые содержат только списки хеш-сумм.
Убедительная просьба с жалобами обращаться напрямую к пользователю, разместившему торрент файл.

Вверх