Loading...
Error

Подводная лодка / Das Boot (Вольфганг Петерсен) [1985 г., драма, военный, DVDRip-AVC] MVO + Dub (Eng) + AVO + Original

Статистика раздачи
Размер:  6,3 GB   |    Зарегистрирован:  3 года 9 месяцев   |    Скачан:  9 раз

Полного источника не было: 29 дней

Сидов:  0  |  0 KB/s  ]   Личеров:  0  |  0 KB/s  ]

* - сиды/пиры с внешних источников

   
 
Автор Сообщение

garry Пол:Муж

25-Фев-2013 16:54

Подводная лодка / Das Boot


Год выпуска: 1985
Жанр: драма, военный
Страна: Германия , Великобритания , Франция
Режиссер: Вольфганг Петерсен
В ролях: Юрген Прохнов, Херберт Грёнемайер, Клаус Веннеманн, Хабертус Бенгш, Мартин Земмельрогге, Бернд Таубер, Эрвин Ледер, Мартин Май, Хайнц Хёниг, Уве Оксенкнехт
Сюжет фильма:
Фильм рассказывает о боевом походе немецкой подводной лодки и людях, поставленных по воле судьбы и времени в ситуацию, когда необходимо убивать, чтобы жить.

  • Мировая премьера: 24 февраля 1985


Качество видео: DVDRip-AVC

Продолжительность: 04:53:13
Формат: MKV
Видео: x264, 720x464@853x464, 1676 kbps
Аудио #1: русский, многоголосый закадровый [профессиональный], AC3 5.1, 384 kbps
Аудио #2: английский, дублированный, AC3 5.1, 384 kbps
Аудио #3: русский, одноголосый закадровый [авторский, Латышев], AAC 6 ch, 300 kbps (отдельно)
Аудио #4: немецкий, оригинал, AAC 6 ch, 300 kbps (отдельно)
Субтитры #1: тип: вшитые отключаемые, русский, формат: SRT
Субтитры #2: тип: вшитые отключаемые, английский, формат: SRT

Код:

General
Unique ID                                : 237622034967133126123341025016996696444 (0xB2C456D9AC9224018650CAE4B268117C)
Complete name                            : D:\Downloads\Torrents\das boot_extended\Das.Boot.1985.DVDRip.AVC.AC3.mkv
Format                                   : Matroska
Format version                           : Version 2
File size                                : 5.01 GiB
Duration                                 : 4h 53mn
Overall bit rate                         : 2 446 Kbps
Encoded date                             : UTC 2009-11-21 13:13:28
Writing application                      : mkvmerge v2.9.0 ('Moanin'') built on May 22 2009 17:46:31
Writing library                          : libebml v0.7.7 + libmatroska v0.8.1

Video
ID                                       : 1
Format                                   : AVC
Format/Info                              : Advanced Video Codec
Format profile                           : High@L4.1
Format settings, CABAC                   : Yes
Format settings, ReFrames                : 10 frames
Codec ID                                 : V_MPEG4/ISO/AVC
Duration                                 : 4h 53mn
Bit rate                                 : 1 676 Kbps
Width                                    : 720 pixels
Height                                   : 464 pixels
Display aspect ratio                     : 1.85:1
Frame rate mode                          : Constant
Frame rate                               : 23.976 fps
Color space                              : YUV
Chroma subsampling                       : 4:2:0
Bit depth                                : 8 bits
Scan type                                : Progressive
Bits/(Pixel*Frame)                       : 0.209
Stream size                              : 3.34 GiB (67%)
Title                                    : Das Boot
Writing library                          : x264 core 77 r1292kMod e381f6d
Encoding settings                        : cabac=1 / ref=10 / deblock=1:0:0 / analyse=0x3:0x113 / me=umh / subme=9 / psy=1 / psy_rd=1.0:0.3 / mixed_ref=1 / me_range=32 / chroma_me=1 / trellis=2 / 8x8dct=1 / cqm=0 / deadzone=21,11 / chroma_qp_offset=-4 / threads=1 / nr=0 / decimate=0 / mbaff=0 / constrained_intra=0 / bframes=8 / b_pyramid=0 / b_adapt=2 / b_bias=0 / direct=1 / wpredb=1 / keyint=250 / keyint_min=25 / scenecut=40 / rc_lookahead=40 / rc=2pass / mbtree=1 / bitrate=1676 / ratetol=1.0 / qcomp=0.80 / qpmin=10 / qpmax=51 / qpstep=4 / cplxblur=20.0 / qblur=0.5 / ip_ratio=1.10 / aq=2:1.20:1.00
Language                                 : English
Default                                  : Yes
Forced                                   : No
Matrix coefficients                      : BT.601

Audio #1
ID                                       : 2
Format                                   : AC-3
Format/Info                              : Audio Coding 3
Mode extension                           : CM (complete main)
Format settings, Endianness              : Big
Codec ID                                 : A_AC3
Duration                                 : 4h 53mn
Bit rate mode                            : Constant
Bit rate                                 : 384 Kbps
Channel(s)                               : 6 channels
Channel positions                        : Front: L C R, Side: L R, LFE
Sampling rate                            : 48.0 KHz
Bit depth                                : 16 bits
Compression mode                         : Lossy
Stream size                              : 805 MiB (16%)
Title                                    : rus
Language                                 : Russian
Default                                  : Yes
Forced                                   : No

Audio #2
ID                                       : 3
Format                                   : AC-3
Format/Info                              : Audio Coding 3
Mode extension                           : CM (complete main)
Format settings, Endianness              : Big
Codec ID                                 : A_AC3
Duration                                 : 4h 53mn
Bit rate mode                            : Constant
Bit rate                                 : 384 Kbps
Channel(s)                               : 6 channels
Channel positions                        : Front: L C R, Side: L R, LFE
Sampling rate                            : 48.0 KHz
Bit depth                                : 16 bits
Compression mode                         : Lossy
Stream size                              : 805 MiB (16%)
Title                                    : eng
Language                                 : English
Default                                  : No
Forced                                   : No

Text #1
ID                                       : 4
Format                                   : UTF-8
Codec ID                                 : S_TEXT/UTF8
Codec ID/Info                            : UTF-8 Plain Text
Title                                    : rus
Language                                 : Russian
Default                                  : No
Forced                                   : No

Text #2
ID                                       : 5
Format                                   : UTF-8
Codec ID                                 : S_TEXT/UTF8
Codec ID/Info                            : UTF-8 Plain Text
Title                                    : eng
Language                                 : English
Default                                  : No
Forced                                   : No
Семпл: http://multi-up.com/835728

Релиз группы:

Доп. информация: Итоговая длительность прокатной версии составила 150 минут, режиссёрская версия имеет длительность 209 минут, оригинальная полная версия, выпущенная в 1996 году, длится 293 минуты. Кроме того, в Германии была выпущена 6-серийная телеверсия данного фильма (TV-Fassung) продолжительностью 351 мин.

picpicpic
Для увеличения картинки щелкните мышкой по превью

Этот торрент недоступен для скачивания без регистрации, однако доступен по публичной magnet-ссылке (источники с публичных трекеров). Перед использованием ссылки прочтите, пожалуйста Пользовательское соглашение, а также как можно дольше оставайтесь на раздаче! Для того, чтобы скачать сам торрент-файл (который видит больше источников), а также для того, чтобы поблагодарить релизера, вам необходимо зарегистрироваться. Если регистрироваться лень - вы можете также попробовать скачать релиз по нашим партнерским ссылкам ниже.

[underverse.su].t24538.torrent
Трекер: Зарегистрирован   [ 25.02.2013 16:54 ]  

Статус: проверено (by garry at 25.02.2013 17:07)
Поблагодарили: 1 человек
Тип торрента: публичный - доступные источники с открытых трекеров: 
Размер: 6,3 GB (занимает 1,44 DVDR, для записи нужно 2 болванки DVDR/RW)
 
 
Похожие темы
Форум Тема Автор Торрент Отв. Посл. сооб.
Зарубежное кино [DVDRip, Low-Res HDRip, и т.д.] Подводная лодка Ю-571 / Ю-571 / U-571 (Джонатан Мостоу / Jonathan Mostow) [2000 г., боевик, триллер, драма, военный, BDRip] Dub (Мосфильм) 90ytr90
16 | 1

0 | 213

3

31.01.2015 22:33

Зарубежное кино [DVDRip, Low-Res HDRip, и т.д.] Подводная лодка Ю-571 / Ю-571 / U-571 (Джонатан Мостоу / Jonathan Mostow) [2000 г., боевик, триллер, драма, военный, BDRip] Dub (Мосфильм) + AVO (Визгунов) + Original (Eng) + Sub (Rus, Eng) 90ytr90
8 | 3

0 | 204

2

31.01.2015 22:33

Зарубежное кино [DVDRip, Low-Res HDRip, и т.д.] Подводная лодка Ю-571 / Ю-571 / U-571 (Джонатан Мостоу / Jonathan Mostow) [2000 г., боевик, триллер, драма, военный, BDRip-AVC] [Open Matte] Dub 90ytr90
7 | 0

0 | 262

3

31.01.2015 22:34

Зарубежные мультфильмы Подводная братва / Shark Tale (Бибо Бержерон, Викки Дженсон) [2004 г., мультфильм, комедия, приключения, семейный, DVDRip] Dub + Eng 90ytr90
2 | 0

0 | 1061

8

10.02.2013 16:05

Зарубежное кино [HDDVDRip / BDRip / WEB-DL / HDTV 1080/720р] Подводная лодка Ю-571 / Ю-571 / U-571 (Джонатан Мостоу / Jonathan Mostow) [2000 г., боевик, триллер, драма, военный, BDRip 720p] [Open Matte] Dub + AVO (С.Визгунов) + Original (Eng) 90ytr90
1 | 0

1 | 334

6

01.02.2015 06:54

Palomino1 Пол:Муж

25-Фев-2013 17:15

Крутой фильм!!!

Яндекс.Метрика powered by Sphinx


В Н И М А Н И Е
Сайт не распространяет и не хранит электронные версии произведений, а лишь бесплатно и без коммерческой выгоды (не требуя взамен платы,
SMS и т.д.) предоставляет доступ к создаваемому пользователями каталогу ссылок на торрент-файлы, которые содержат только списки хеш-сумм.
Убедительная просьба с жалобами обращаться напрямую к пользователю, разместившему торрент файл.

Вверх