Loading...
Error

Исповедь невидимки / Memoirs of an Invisible Man (Джон Карпентер) [1992 г., фантастика, триллер, мелодрама, комедия, BDRip-AVC] MVO + Original

Статистика раздачи
Размер:  2,19 GB   |    Зарегистрирован:  3 года 9 месяцев   |    Скачан:  11 раз

Полного источника не было: 2 года 2 месяца

Сидов:  0  |  0 KB/s  ]   Личеров:  0  |  0 KB/s  ]

* - сиды/пиры с внешних источников

   
 
Автор Сообщение

garry Пол:Муж

25-Фев-2013 09:51

Исповедь невидимки / Memoirs of an Invisible Man


Год выпуска: 1992
Жанр: фантастика, триллер, мелодрама, комедия
Страна: США , Франция
Режиссер: Джон Карпентер
В ролях: Чеви Чейз, Дэрил Ханна, Сэм Нил, Майкл МакКин, Стивен Тоболовски, Джим Нортон, Пэт Скиппер, Пол Перри, Ричард Эпкар, Стив Барр
Сюжет фильма:
В результате взрыва в научной лаборатории главный герой фильма становится невидимым. Это переворачивает всю его жизнь; циничные сотрудники ЦРУ начинают охоту на него, однако с помощью очаровательной подружки ему удается выйти победителем из схватки с негодяями.

  • Мировая премьера: 28 февраля 1992

/
Качество видео: BDRip-AVC

Продолжительность: 01:39:05
Формат: MKV
Видео: x264, 1120x478, 2768 kbps
Аудио #1: русский, многоголосый закадровый [профессиональный], AC3 2.0, 192 kbps
Аудио #2: английский, оригинал, AC3 2.0, 192 kbps
Субтитры #1: тип: вшитые отключаемые, русский, формат: SRT
Субтитры #2: тип: вшитые отключаемые, английский, формат: SRT

Код:

General
 Unique ID : 173718561312982644279337426593342116002 (0x82B0FA587F2FADE5A3F69F36F86950A2)
 Complete name : F:\FILMS\___ - R - ___\Memoirs Of An Invisible Man.mkv
 Format : Matroska
 Format version : Version 2
 File size : 2.19 GiB
 Duration : 1h 39mn
 Overall bit rate : 3 157 Kbps
 Encoded date : UTC 2013-02-22 20:12:38
 Writing application : mkvmerge v5.6.0 ('Kenya Kane') built on May 27 2012 16:44:04
 Writing library : libebml v1.2.3 + libmatroska v1.3.0

Video
 ID : 1
 Format : AVC
 Format/Info : Advanced Video Codec
 Format profile : High@L4.1
 Format settings, CABAC : Yes
 Format settings, ReFrames : 15 frames
 Codec ID : V_MPEG4/ISO/AVC
 Duration : 1h 39mn
 Bit rate : 2 768 Kbps
 Width : 1 120 pixels
 Height : 478 pixels
 Display aspect ratio : 2.35:1
 Frame rate mode : Constant
 Frame rate : 23.976 fps
 Color space : YUV
 Chroma subsampling : 4:2:0
 Bit depth : 8 bits
 Scan type : Progressive
 Bits/(Pixel*Frame) : 0.216
 Stream size : 1.88 GiB (86%)
 Title : AVC 1120x478@23.976 fps ~2768 kBit/s 2-pass High 4.1 0.216 2.35:1
 Writing library : x264 core 125 r2200bm 999b753
 Encoding settings : cabac=1 / ref=15 / deblock=1:-3:-3 / analyse=0x3:0x133 / me=umh / subme=10 / psy=1 / psy_rd=1.00:0.05 / mixed_ref=1 / me_range=32 / chroma_me=1 / trellis=2 / 8x8dct=1 / cqm=0 / deadzone=21,11 / fast_pskip=0 / chroma_qp_offset=-3 / threads=6 / lookahead_threads=1 / sliced_threads=0 / nr=0 / decimate=1 / interlaced=0 / bluray_compat=0 / constrained_intra=0 / bframes=12 / b_pyramid=2 / b_adapt=2 / b_bias=0 / direct=3 / weightb=1 / open_gop=0 / weightp=2 / keyint=250 / keyint_min=23 / scenecut=40 / intra_refresh=0 / rc=2pass / mbtree=0 / bitrate=2768 / ratetol=1.0 / qcomp=0.90 / qpmin=13 / qpmax=69 / qpstep=4 / cplxblur=20.0 / qblur=0.8 / ip_ratio=1.45 / pb_ratio=1.40 / aq=2:0.80
 Language : English
 Default : Yes
 Forced : No

Audio #1
 ID : 2
 Format : AC-3
 Format/Info : Audio Coding 3
 Format profile : Dolby Digital
 Mode extension : CM (complete main)
 Format settings, Endianness : Big
 Codec ID : A_AC3
 Duration : 1h 39mn
 Bit rate mode : Constant
 Bit rate : 192 Kbps
 Channel(s) : 2 channels
 Channel positions : Front: L R
 Sampling rate : 48.0 KHz
 Bit depth : 16 bits
 Compression mode : Lossy
 Stream size : 136 MiB (6%)
 Title : MVO AC3 192 kBit/s 48 kHz 2.0 DD
 Language : Russian
 Default : Yes
 Forced : No

Audio #2
 ID : 3
 Format : AC-3
 Format/Info : Audio Coding 3
 Mode extension : CM (complete main)
 Format settings, Endianness : Big
 Codec ID : A_AC3
 Duration : 1h 39mn
 Bit rate mode : Constant
 Bit rate : 192 Kbps
 Channel(s) : 2 channels
 Channel positions : Front: L R
 Sampling rate : 48.0 KHz
 Bit depth : 16 bits
 Compression mode : Lossy
 Stream size : 136 MiB (6%)
 Title : English AC3 192 kBit/s 48 kHz 2.0 DD
 Language : English
 Default : No
 Forced : No

Text #1
 ID : 4
 Format : UTF-8
 Codec ID : S_TEXT/UTF8
 Codec ID/Info : UTF-8 Plain Text
 Language : Russian
 Default : No
 Forced : No

Text #2
 ID : 5
 Format : UTF-8
 Codec ID : S_TEXT/UTF8
 Codec ID/Info : UTF-8 Plain Text
 Language : English
 Default : No
 Forced : No
Семпл: http://multi-up.com/835336

Релиз группы:

picpicpic
Для увеличения картинки щелкните мышкой по превью

Этот торрент недоступен для скачивания без регистрации, однако доступен по публичной magnet-ссылке (источники с публичных трекеров). Перед использованием ссылки прочтите, пожалуйста Пользовательское соглашение, а также как можно дольше оставайтесь на раздаче! Для того, чтобы скачать сам торрент-файл (который видит больше источников), а также для того, чтобы поблагодарить релизера, вам необходимо зарегистрироваться. Если регистрироваться лень - вы можете также попробовать скачать релиз по нашим партнерским ссылкам ниже.

[underverse.su].t24521.torrent
Трекер: Зарегистрирован   [ 25.02.2013 09:51 ]  

Статус: проверено (by garry at 25.02.2013 09:51)
Поблагодарили: пока никто не поблагодарил...
Тип торрента: публичный - доступные источники с открытых трекеров: 
Размер: 2,19 GB (занимает 1/2 DVDR, для записи нужно 1 болванка DVDR/RW)
 
 

Яндекс.Метрика powered by Sphinx


В Н И М А Н И Е
Сайт не распространяет и не хранит электронные версии произведений, а лишь бесплатно и без коммерческой выгоды (не требуя взамен платы,
SMS и т.д.) предоставляет доступ к создаваемому пользователями каталогу ссылок на торрент-файлы, которые содержат только списки хеш-сумм.
Убедительная просьба с жалобами обращаться напрямую к пользователю, разместившему торрент файл.

Вверх