Loading...
Error

Жизненная сила / Lifeforce (Тоуб Хупер) [1985 г., ужасы, фантастика, триллер, HDTVRip-AVC] MVO + AVO + Original

Статистика раздачи
Размер:  2,91 GB   |    Зарегистрирован:  3 года 9 месяцев   |    Скачан:  12 раз

Полного источника не было: 4 месяца 26 дней

Сидов:  0  |  0 KB/s  ]   Личеров:  0  |  0 KB/s  ]

* - сиды/пиры с внешних источников

   
 
Автор Сообщение

garry Пол:Муж

25-Фев-2013 09:37

Жизненная сила / Lifeforce


Год выпуска: 1985
Жанр: ужасы, фантастика, триллер
Страна: США , Великобритания
Режиссер: Тоуб Хупер
В ролях: Стив Рейлсбэк, Питер Фёрт, Фрэнк Финлей, Матильда Мэй, Патрик Стюарт, Майкл Гозард, Николас Болл, Обри Моррис, Нэнси Пол, Джон Хэллам
Сюжет фильма:
Космическая экспедиция исследует комету Галлея и натыкается на новую форму разумной жизни — нечто вроде космических вампиров, вместо крови черпающих энергию из своих жертв. Забрав этих чудовищ в образах очень красивой обнаженной женщины и двух мужчин на борт, космонавты совершили страшную ошибку. Мало того, что все они, кроме Рэйлсбэка погибли, вампиры проникли на Землю, где начали массовую заготовку жизенной силы, забирая ее у людей, превращавшихся в нечто вроде зомби. Все это напоминает конец света.

  • Мировая премьера: 21 июня 1985

/
Качество видео: HDTVRip-AVC

Продолжительность: 01:51:20
Формат: MKV
Видео: x264, 1104x470, 3346 kbps
Аудио #1: русский, многоголосый закадровый [профессиональный], AC3 2.0, 192 kbps
Аудио #2: русский, одноголосый закадровый [авторский, Гаврилов], AC3 2.0, 192 kbps
Аудио #3: английский, оригинал, AC3 2.0, 192 kbps
Субтитры: тип: вшитые отключаемые, английский, формат: SRT

Код:

General
 Unique ID : 187856549279536734705876800956501046481 (0x8D53DAF842F939D7B9030D4C881BB4D1)
 Complete name : F:\FILMS\___ - R - ___\Lifeforce.mkv
 Format : Matroska
 Format version : Version 2
 File size : 2.91 GiB
 Duration : 1h 51mn
 Overall bit rate : 3 745 Kbps
 Encoded date : UTC 2013-02-23 18:34:05
 Writing application : mkvmerge v5.6.0 ('Kenya Kane') built on May 27 2012 16:44:04
 Writing library : libebml v1.2.3 + libmatroska v1.3.0

Video
 ID : 1
 Format : AVC
 Format/Info : Advanced Video Codec
 Format profile : High@L4.1
 Format settings, CABAC : Yes
 Format settings, ReFrames : 15 frames
 Codec ID : V_MPEG4/ISO/AVC
 Duration : 1h 51mn
 Bit rate : 3 094 Kbps
 Nominal bit rate : 3 346 Kbps
 Width : 1 104 pixels
 Height : 470 pixels
 Display aspect ratio : 2.35:1
 Frame rate mode : Constant
 Frame rate : 25.000 fps
 Color space : YUV
 Chroma subsampling : 4:2:0
 Bit depth : 8 bits
 Scan type : Progressive
 Bits/(Pixel*Frame) : 0.239
 Stream size : 2.41 GiB (83%)
 Title : AVC 1104x470@25fps ~3346 kBit/s 2-pass High 4.1 2.35:1
 Writing library : x264 core 125 r2200bm 999b753
 Encoding settings : cabac=1 / ref=15 / deblock=1:-3:-3 / analyse=0x3:0x133 / me=umh / subme=10 / psy=1 / psy_rd=1.00:0.00 / mixed_ref=1 / me_range=32 / chroma_me=1 / trellis=2 / 8x8dct=1 / cqm=0 / deadzone=21,11 / fast_pskip=0 / chroma_qp_offset=-2 / threads=6 / lookahead_threads=1 / sliced_threads=0 / nr=0 / decimate=1 / interlaced=0 / bluray_compat=0 / constrained_intra=0 / bframes=12 / b_pyramid=2 / b_adapt=2 / b_bias=0 / direct=3 / weightb=1 / open_gop=0 / weightp=2 / keyint=250 / keyint_min=25 / scenecut=40 / intra_refresh=0 / rc=2pass / mbtree=0 / bitrate=3346 / ratetol=1.0 / qcomp=0.90 / qpmin=13 / qpmax=69 / qpstep=4 / cplxblur=30.0 / qblur=0.9 / ip_ratio=1.35 / pb_ratio=1.30 / aq=2:0.70
 Language : English
 Default : Yes
 Forced : No

Audio #1
 ID : 2
 Format : AC-3
 Format/Info : Audio Coding 3
 Mode extension : CM (complete main)
 Format settings, Endianness : Big
 Codec ID : A_AC3
 Duration : 1h 51mn
 Bit rate mode : Constant
 Bit rate : 192 Kbps
 Channel(s) : 2 channels
 Channel positions : Front: L R
 Sampling rate : 48.0 KHz
 Bit depth : 16 bits
 Compression mode : Lossy
 Stream size : 153 MiB (5%)
 Title : MVO AC3 192 kBit/s 48 kHz 2.0 DD
 Language : Russian
 Default : Yes
 Forced : No

Audio #2
 ID : 3
 Format : AC-3
 Format/Info : Audio Coding 3
 Mode extension : CM (complete main)
 Format settings, Endianness : Big
 Codec ID : A_AC3
 Duration : 1h 51mn
 Bit rate mode : Constant
 Bit rate : 192 Kbps
 Channel(s) : 2 channels
 Channel positions : Front: L R
 Sampling rate : 48.0 KHz
 Bit depth : 16 bits
 Compression mode : Lossy
 Stream size : 153 MiB (5%)
 Title : AVO AC3 192 kBit/s 48 kHz 2.0 DD
 Language : Russian
 Default : No
 Forced : No

Audio #3
 ID : 4
 Format : AC-3
 Format/Info : Audio Coding 3
 Mode extension : CM (complete main)
 Format settings, Endianness : Big
 Codec ID : A_AC3
 Duration : 1h 51mn
 Bit rate mode : Constant
 Bit rate : 192 Kbps
 Channel(s) : 2 channels
 Channel positions : Front: L R
 Sampling rate : 48.0 KHz
 Bit depth : 16 bits
 Compression mode : Lossy
 Stream size : 153 MiB (5%)
 Title : English AC3 192 kBit/s 48 kHz 2.0 DD
 Language : English
 Default : No
 Forced : No

Text
 ID : 5
 Format : UTF-8
 Codec ID : S_TEXT/UTF8
 Codec ID/Info : UTF-8 Plain Text
 Language : English
 Default : No
 Forced : No
Семпл: http://multi-up.com/835270

Релиз группы:

picpicpic
Для увеличения картинки щелкните мышкой по превью

Этот торрент недоступен для скачивания без регистрации, однако доступен по публичной magnet-ссылке (источники с публичных трекеров). Перед использованием ссылки прочтите, пожалуйста Пользовательское соглашение, а также как можно дольше оставайтесь на раздаче! Для того, чтобы скачать сам торрент-файл (который видит больше источников), а также для того, чтобы поблагодарить релизера, вам необходимо зарегистрироваться. Если регистрироваться лень - вы можете также попробовать скачать релиз по нашим партнерским ссылкам ниже.

[underverse.su].t24518.torrent
Трекер: Зарегистрирован   [ 25.02.2013 09:38 ]  

Статус: проверено (by garry at 25.02.2013 09:39)
Поблагодарили: пока никто не поблагодарил...
Тип торрента: публичный - доступные источники с открытых трекеров: 
Размер: 2,91 GB (занимает 2/3 DVDR, для записи нужно 1 болванка DVDR/RW)
 
 

Яндекс.Метрика powered by Sphinx


В Н И М А Н И Е
Сайт не распространяет и не хранит электронные версии произведений, а лишь бесплатно и без коммерческой выгоды (не требуя взамен платы,
SMS и т.д.) предоставляет доступ к создаваемому пользователями каталогу ссылок на торрент-файлы, которые содержат только списки хеш-сумм.
Убедительная просьба с жалобами обращаться напрямую к пользователю, разместившему торрент файл.

Вверх