Loading...
Error

Рассмеши комика [Россия] (Выпуски 13-19) (2013) IPTVRip [2013 г., Юмор, IPTVRip]

Статистика раздачи
Размер:  3,76 GB   |    Зарегистрирован:  4 года 7 месяцев   |    Скачан:  0 раз

Полного источника не было: 14 дней

Сидов:  0  |  0 KB/s  ]   Личеров:  0  |  0 KB/s  ]

* - сиды/пиры с внешних источников

   
 
Автор Сообщение

SHuRuP Пол:Муж

24-Фев-2013 22:29

Рассмеши комика [Россия] (Выпуски 13-19) (2013) IPTVRip


Год выпуска: 2013
Жанр: Юмор
Страна: Россия
Ведущий: Роман Емельянов
Комики: Владимир Зеленский и Максим Галкин
Описание:
Рассмешить своего знакомого или родственника - это одно дело, а вот заставить
смеяться человека, который всю свою жизнь профессионально занимается юмором -
такая задача по зубам далеко не каждому... Зато тот, кому удастся рассмешить
Максима Галкина и Вову Зеленского, может превратится в миллионера всего за 5 минут!
Качество видео: IPTVRip

Продолжительность: 00:44:22
Формат: avi
Видео: XviD, 720x400, 1595 kbps
Аудио: русский, оригинал, MP3 2.0, 128 kbps

Код:

General
Complete name                    : G:\Post-KVN\RK_RU\S_2\rassmeshi.komika.rossiya.(13).www.kvnforall.info.avi
Format                           : AVI
Format/Info                      : Audio Video Interleave
File size                        : 550 MiB
Duration                         : 44mn 22s
Overall bit rate                 : 1 733 Kbps
Writing library                  : VirtualDub build 32842/release

Video
ID                               : 0
Format                           : MPEG-4 Visual
Format profile                   : Streaming Video@L1
Format settings, BVOP            : Yes
Format settings, QPel            : No
Format settings, GMC             : No warppoints
Format settings, Matrix          : Default (MPEG)
Codec ID                         : XVID
Codec ID/Hint                    : XviD
Duration                         : 44mn 22s
Bit rate                         : 1 595 Kbps
Width                            : 720 pixels
Height                           : 400 pixels
Display aspect ratio             : 16/9
Frame rate                       : 25.000 fps
Resolution                       : 24 bits
Colorimetry                      : 4:2:0
Scan type                        : Progressive
Bits/(Pixel*Frame)               : 0.222
Stream size                      : 506 MiB (92%)
Writing library                  : XviD 64

Audio
ID                               : 1
Format                           : MPEG Audio
Format version                   : Version 1
Format profile                   : Layer 3
Codec ID                         : 55
Codec ID/Hint                    : MP3
Duration                         : 44mn 22s
Bit rate mode                    : Constant
Bit rate                         : 128 Kbps
Channel(s)                       : 2 channels
Sampling rate                    : 48.0 KHz
Resolution                       : 16 bits
Video delay                      : 150ms
Stream size                      : 40.6 MiB (7%)
Alignment                        : Split accross interleaves
Interleave, duration             : 40 ms (1.00 video frame)
Interleave, preload duration     : 500 ms
Техническое описание по 13-ому выпуску.
Остальные файлы приблизительно идентичны.


Раздача ведётся путём перезаливки торрент-файла!

Сезон 1 >>>


Розсміши коміка / Рассмеши комика - Сезон 1 >>>


Розсміши коміка / Рассмеши комика - Сезон 2 >>>


Розсміши коміка / Рассмеши комика - Сезон 3 >>>


Розсміши коміка / Рассмеши комика - Сезон 4 >>>


Розсміши коміка / Рассмеши комика - Сезон 5 >>>


Релиз группы:

picpicpicpic
Для увеличения картинки щелкните мышкой по превью

Этот торрент недоступен для скачивания без регистрации, однако доступен по публичной magnet-ссылке (источники с публичных трекеров). Перед использованием ссылки прочтите, пожалуйста Пользовательское соглашение, а также как можно дольше оставайтесь на раздаче! Для того, чтобы скачать сам торрент-файл (который видит больше источников), а также для того, чтобы поблагодарить релизера, вам необходимо зарегистрироваться. Если регистрироваться лень - вы можете также попробовать скачать релиз по нашим партнерским ссылкам ниже.

[underverse.su].t24501.torrent
Трекер: Зарегистрирован   [ 02.04.2013 18:30 ]  

Статус: проверено (by Чертёнок at 02.04.2013 18:32)
Поблагодарили: пока никто не поблагодарил...
Тип торрента: публичный - доступные источники с открытых трекеров: 
Размер: 3,76 GB (занимает 0,86 DVDR, для записи нужно 1 болванка DVDR/RW)
 
 
Похожие темы
Форум Тема Автор Торрент Отв. Посл. сооб.
Другие развлекательные передачи Рассмеши комика [Россия] (Выпуски 1-12) (2012) SATRip [2012 г., Юмор, SatRip] SHuRuP
0 | 0

3 | 7072

2

24.02.2013 21:59



Последний раз редактировалось: SHuRuP (29.04.2013 18:18), всего редактировалось 2 раз(а)

SHuRuP Пол:Муж

09-Мар-2013 15:10

Добавлен выпуск 18

SHuRuP Пол:Муж

02-Апр-2013 18:30

Добавлен выпуск 19

Яндекс.Метрика powered by Sphinx


В Н И М А Н И Е
Сайт не распространяет и не хранит электронные версии произведений, а лишь бесплатно и без коммерческой выгоды (не требуя взамен платы,
SMS и т.д.) предоставляет доступ к создаваемому пользователями каталогу ссылок на торрент-файлы, которые содержат только списки хеш-сумм.
Убедительная просьба с жалобами обращаться напрямую к пользователю, разместившему торрент файл.

Вверх