Loading...
Error

Тринадцатый этаж / The Thirteenth Floor (Йозеф Руснак) [1999 г., фантастика, триллер, детектив, DVDRip] MVO

Статистика раздачи
Размер:  645 MB   |    Зарегистрирован:  3 года 9 месяцев   |    Скачан:  4 раза

Полного источника не было: 2 года 3 месяца

Сидов:  0  |  0 KB/s  ]   Личеров:  0  |  0 KB/s  ]

* - сиды/пиры с внешних источников

   
 
Автор Сообщение

olleg Пол:Муж

23-Фев-2013 20:47

Тринадцатый этаж / The Thirteenth Floor


Год выпуска: 1999
Жанр: фантастика, триллер, детектив
Страна: США , Германия
Режиссер: Йозеф Руснак
В ролях: Крэйг Бирко, Гретхен Мол, Армин Мюллер-Шталь, Винсент Д’Онофрио, Деннис Хейсбёрт, Стивен Шуб, Джереми Робертс, Риф Хаттон, Леон Риппи, Джанет МакЛахлан
Сюжет фильма:
На тринадцатом этаже компьютерной корпорации была разработана совершенная модель виртуальной реальности, создание которой повлекло за собой цепь таинственных убийств. Разгадать загадку можно, лишь погрузившись в иное измерение, где может быть ответ на многие вопросы, а может быть — страшная нереальность…

  • Мировая премьера: 16 апреля 1999

Качество видео: DVDRip

Продолжительность: 01:36:16
Формат: avi
Видео: DivX 3 Low, 688x512, 830 kbps
Аудио: русский, многоголосый закадровый [профессиональный], MP3 2.0, 96 kbps

Код:

General
Complete name                    : D:\Фильмы\01_Смотрел\13-й этаж__5+.avi
Format                           : AVI
Format/Info                      : Audio Video Interleave
File size                        : 645 MiB
Duration                         : 1h 36mn
Overall bit rate                 : 937 Kbps
Writing library                  : VirtualDub build 10805/release

Video
ID                               : 0
Format                           : MPEG-4 Visual
Codec ID                         : DIV3
Codec ID/Hint                    : DivX 3 Low
Duration                         : 1h 36mn
Bit rate                         : 831 Kbps
Width                            : 688 pixels
Height                           : 512 pixels
Display aspect ratio             : 4/3
Frame rate                       : 25.038 fps
Resolution                       : 24 bits
Bits/(Pixel*Frame)               : 0.094
Stream size                      : 572 MiB (89%)

Audio
ID                               : 1
Format                           : MPEG Audio
Format version                   : Version 1
Format profile                   : Layer 3
Codec ID                         : 55
Codec ID/Hint                    : MP3
Duration                         : 1h 36mn
Bit rate mode                    : Constant
Bit rate                         : 96.0 Kbps
Channel(s)                       : 2 channels
Sampling rate                    : 44.1 KHz
Resolution                       : 16 bits
Stream size                      : 66.1 MiB (10%)
Alignment                        : Split accross interleaves
Interleave, duration             : 40 ms (1.00 video frame)
Interleave, preload duration     : 500 ms

picpicpicpicpic
Для увеличения картинки щелкните мышкой по превью

Этот торрент недоступен для скачивания без регистрации, однако доступен по публичной magnet-ссылке (источники с публичных трекеров). Перед использованием ссылки прочтите, пожалуйста Пользовательское соглашение, а также как можно дольше оставайтесь на раздаче! Для того, чтобы скачать сам торрент-файл (который видит больше источников), а также для того, чтобы поблагодарить релизера, вам необходимо зарегистрироваться. Если регистрироваться лень - вы можете также попробовать скачать релиз по нашим партнерским ссылкам ниже.

[underverse.su].t24473.torrent
Трекер: Зарегистрирован   [ 23.02.2013 20:47 ]  

Статус: проверено (by Чертёнок at 23.02.2013 21:08)
Поблагодарили: 2 человека
Тип торрента: публичный - доступные источники с открытых трекеров: 
Размер: 645 MB (занимает 0,14 DVDR, для записи нужно 1 болванка DVDR/RW)
 
 
Похожие темы
Форум Тема Автор Торрент Отв. Посл. сооб.
Зарубежное кино [DVDRip, Low-Res HDRip, и т.д.] Тринадцатый этаж / The Thirteenth Floor (Йозеф Руснак) [1999 г., фантастика, триллер, детектив, BDRip-AVC] Dub + Original garry
149 | 2

0 | 630

29

26.11.2012 21:39

Зарубежные сериалы Тринадцатый / XIII: The Series / Сезон 2 / Серии 1-13 (13) (Дуан Кларк, Ален Тасма) [2013 г., боевик, триллер, криминал, детектив, HDRip] DVO + Original Чертёнок
0 | 0

0 | 488

17

27.04.2013 18:02

Зарубежные сериалы Тринадцатый / XIII: The Series / Сезон 1 / Серии 1-13 (13) (Дуан Кларк, Ален Тасма) [2011 г., боевик, триллер, криминал, детектив, HDRip] DVO + Original Чертёнок
1 | 0

0 | 511

15

27.04.2013 18:17

Зарубежные сериалы Тринадцатый апостол - Избранный / Il tredicesimo apostolo - Il prescelto [сезон 1 / серии 01-12 (12)] (Алексис Кехилл) [2012 г., фантастика, фэнтези, мистика, драма, DVDRip] Dub (ТВ3) + Original 90ytr90
5 | 1

0 | 1879

24

29.10.2013 15:30

Зарубежное кино [DVD / HDDVD / BD / Remux] Тринадцатый этаж / The Thirteenth Floor (Джозеф Руснак / Josef Rusnak) [1999, фантастический триллер, Blu-ray] uzi2009
8 | 2

0 | 589

2

25.01.2014 23:48

Зарубежное кино [HDDVDRip / BDRip / WEB-DL / HDTV 1080/720р] Тринадцатый этаж / 13-ый этаж / The Thirteenth Floor (Джозеф Руснак /Josef Rusnak) [1999 г., фантастический триллер, BDRip 1080p] Dub + DVO + Original + Subs (Rus, Eng) uzi2009
54 | 5

0 | 728

10

25.01.2014 23:50



Последний раз редактировалось: olleg (24.02.2013 19:29), всего редактировалось 1 раз

garry Пол:Муж

23-Фев-2013 21:50

Цитата:

Видео: DivX, 688 x 512 (43:32), 25,038 Гц
не хватает битрейта.
рип Ваш личный?

olleg Пол:Муж

23-Фев-2013 21:59

по битрейту не знаю где инфу найти, в media player выдает еще:
Video: DivX 3 688x512 25.04fps [Stream 00]
Audio: MPEG Audio Layer 3 44100Hz stereo 96kbps [Stream 01]

рип не мой, качал давно и не помню от куда

90ytr90 

24-Фев-2013 06:52

olleg писал(а):

по битрейту не знаю где инфу найти
http://underverse.su/viewtopic.php?t=20650

Яндекс.Метрика powered by Sphinx


В Н И М А Н И Е
Сайт не распространяет и не хранит электронные версии произведений, а лишь бесплатно и без коммерческой выгоды (не требуя взамен платы,
SMS и т.д.) предоставляет доступ к создаваемому пользователями каталогу ссылок на торрент-файлы, которые содержат только списки хеш-сумм.
Убедительная просьба с жалобами обращаться напрямую к пользователю, разместившему торрент файл.

Вверх