Loading...
Error

Уже не дети / Electrick Children (Ребекка Томас / Rebecca Thomas) [2012 г., драма, HDRip] MVO

Статистика раздачи
Размер:  1,37 GB   |    Зарегистрирован:  3 года 9 месяцев   |    Скачан:  9 раз

Полного источника не было: 2 месяца 3 дня

Сидов:  0  |  0 KB/s  ]   Личеров:  0  |  0 KB/s  ]

* - сиды/пиры с внешних источников

   
 
Автор Сообщение

Доктор Ватсон Пол:Муж

23-Фев-2013 10:46

Уже не дети / Electrick Children


Год выпуска: 2012
Жанр: драма
Страна: США
Режиссер: Ребекка Томас / Rebecca Thomas
В ролях: Джулия Гарнер, Рори Калкин, Лиам Эйкен, Билл Сейдж, Синтия Уэтрос, Билли Зейн, Джон Патрик Амедори, Рэйчел Пирард, Кэссиди Гард, Паола Балдион, Гай Камиллери, Эва Локерани Брандимарти
Сюжет фильма:
Рэйчел - пятнадцатилетняя девочка из семьи мормонов-фундаменталистов штата Юта. Однажды она находит запрещенную кассету с рок-музыкой. Никогда не слышав ничего подобного прежде, Рэйчел переживает неповторимые эмоции. Три месяца спустя Рэйчел обнаруживает, что беременна, и утверждает, что произошло непорочное зачатие от прослушивания запретных рок-записей. Родители Рейчел готовят для неё свадьбу, но она бежит в ближайший город - Лас-Вегас, чтобы найти человека, который поет на кассете, думая, что он имеет какое-то отношение к её таинственной беременности ...


Качество видео: HDRip

Продолжительность: 01:35:21
Формат: AVI
Видео: XviD, 720x384 (1.875), 1858 kbps
Аудио: русский, многоголосый закадровый [профессиональный], AC3 2.0, 192 kbps

Код:

General
Complete name : F:\Uzhe.ne.deti.2012.P.HDRip_1400.avi
Format : AVI
Format/Info : Audio Video Interleave
File size : 1.37 GiB
Duration : 1h 35mn
Overall bit rate : 2 060 Kbps
Writing application : VirtualDubMod 1.5.10.2 (build 2540/release)
Writing library : VirtualDubMod build 2540/release

Video
ID : 0
Format : MPEG-4 Visual
Format profile : Advanced Simple@L5
Format settings, BVOP : 2
Format settings, QPel : No
Format settings, GMC : No warppoints
Format settings, Matrix : Default (MPEG)
Codec ID : XVID
Codec ID/Hint : XviD
Duration : 1h 35mn
Bit rate : 1 859 Kbps
Width : 720 pixels
Height : 384 pixels
Display aspect ratio : 1.85:1
Frame rate : 23.976 fps
Color space : YUV
Chroma subsampling : 4:2:0
Bit depth : 8 bits
Scan type : Progressive
Compression mode : Lossy
Bits/(Pixel*Frame) : 0.280
Stream size : 1.24 GiB (90%)
Writing library : XviD 1.2.1 (UTC 2008-12-04)

Audio
ID : 1
Format : AC-3
Format/Info : Audio Coding 3
Mode extension : CM (complete main)
Format settings, Endianness : Big
Codec ID : 2000
Duration : 1h 35mn
Bit rate mode : Constant
Bit rate : 192 Kbps
Channel(s) : 2 channels
Channel positions : Front: L R
Sampling rate : 48.0 KHz
Bit depth : 16 bits
Compression mode : Lossy
Stream size : 131 MiB (9%)
Alignment : Split accross interleaves
Interleave, duration : 42 ms (1.00 video frame)
Interleave, preload duration : 500 ms
Семпл: http://multi-up.com/834534

picpicpicpic
Для увеличения картинки щелкните мышкой по превью

Этот торрент недоступен для скачивания без регистрации, однако доступен по публичной magnet-ссылке (источники с публичных трекеров). Перед использованием ссылки прочтите, пожалуйста Пользовательское соглашение, а также как можно дольше оставайтесь на раздаче! Для того, чтобы скачать сам торрент-файл (который видит больше источников), а также для того, чтобы поблагодарить релизера, вам необходимо зарегистрироваться. Если регистрироваться лень - вы можете также попробовать скачать релиз по нашим партнерским ссылкам ниже.

[underverse.su].t24455.torrent
Трекер: Зарегистрирован   [ 23.02.2013 10:46 ]  

Статус: проверено (by Чертёнок at 23.02.2013 16:05)
Поблагодарили: пока никто не поблагодарил...
Тип торрента: публичный - доступные источники с открытых трекеров: 
Размер: 1,37 GB (занимает 0,31 DVDR, для записи нужно 1 болванка DVDR/RW)
 
 
Похожие темы
Форум Тема Автор Торрент Отв. Посл. сооб.
Зарубежное кино [DVDRip, Low-Res HDRip, и т.д.] Уже не дети / Electrick Children (Ребекка Томас) [2012 г., драма, DVDRip] MVO RG NewCinema
21 | 0

0 | 719

10

22.10.2012 21:56


Яндекс.Метрика powered by Sphinx


В Н И М А Н И Е
Сайт не распространяет и не хранит электронные версии произведений, а лишь бесплатно и без коммерческой выгоды (не требуя взамен платы,
SMS и т.д.) предоставляет доступ к создаваемому пользователями каталогу ссылок на торрент-файлы, которые содержат только списки хеш-сумм.
Убедительная просьба с жалобами обращаться напрямую к пользователю, разместившему торрент файл.

Вверх