Loading...
Error

В доме / Dans La Maison (Франсуа Озон / François Ozon) [2012 г., триллер, детектив, HDRip] Dub (лицензия) + Original (Fra)

Статистика раздачи
Размер:  2,05 GB   |    Зарегистрирован:  3 года 9 месяцев   |    Скачан:  24 раза

Полного источника не было: 2 года 3 месяца

Сидов:  0  |  0 KB/s  ]   Личеров:  0  |  0 KB/s  ]

* - сиды/пиры с внешних источников

   
 
Автор Сообщение

Доктор Ватсон Пол:Муж

23-Фев-2013 10:33

В доме / Dans La Maison


Год выпуска: 2012
Жанр: триллер, детектив
Страна: Франция
Режиссер: Франсуа Озон / François Ozon
В ролях: Фабрис Лукини, Эрнст Умоер, Кристин Скотт Томас, Эмманюэль Сенье, Дени Меноше, Бастьен Угетто, Жан-Франсуа Балмер, Иоланда Моро, Катрин Давенье, Винсент Шмитт, Жак Боск, Стефани Кэмпион
Сюжет фильма:
Разочаровавшись в своих учениках, учитель благоволит лишь мальчику, сидящему на последней парте и сильно выделяющемуся на фоне остальных. Этот ребенок имеет склонность к подглядыванию и однажды решает написать рассказ о семье своего одноклассника, за которой имеет возможность систематически наблюдать.
Качество видео: HDRip

Продолжительность: 01:45:10
Формат: AVI
Видео: XviD, 720x384 (1.88:1), 2022 kbps
Аудио #1: русский, дублированный [лицензия], AC3 5.1, ~384 kbps
Аудио #2: французский, оригинал, AC3 5.1, ~384 kbps

Код:

Общее
Полное имя : Dans la maison.avi
Формат : AVI
Формат/Информация : Audio Video Interleave
Профиль формата : OpenDML
Размер файла : 2,05 Гбайт
Продолжительность : 1 ч. 45 м.
Общий поток : 2797 Кбит/сек
Программа кодирования : VirtualDubMod 1.5.10.2 (build 2540/release)

Видео
Идентификатор : 0
Формат : MPEG-4 Visual
Профиль формата : Advanced Simple@L5
Параметр BVOP формата : 2
Параметр QPel формата : Нет
Параметр GMC формата : Без точки перехода
Параметр матрицы формата : Выборочная
Идентификатор кодека : XVID
Идентификатор кодека/Подсказка : XviD
Продолжительность : 1 ч. 45 м.
Битрейт : 2011 Кбит/сек
Ширина : 720 пикселей
Высота : 384 пикселя
Соотношение сторон : 1,875
Частота кадров : 24,000 кадра/сек
Цветовое пространство : YUV
Субдискретизация насыщенности : 4:2:0
Битовая глубина : 8 бит
Тип развёртки : Прогрессивная
Метод сжатия : С потерями
Бит/(Пиксели*Кадры) : 0.303
Размер потока : 1,48 Гбайт (72%)
Библиотека кодирования : XviD 1.2.1 (UTC 2008-12-04)

Аудио #1
Идентификатор : 1
Формат : AC-3
Формат/Информация : Audio Coding 3
Расширение режима : CM (complete main)
Идентификатор кодека : 2000
Продолжительность : 1 ч. 45 м.
Вид битрейта : Постоянный
Битрейт : 384 Кбит/сек
Каналы : 6 каналов
Расположение каналов : Front: L C R, Side: L R, LFE
Частота : 48,0 КГц
Битовая глубина : 16 бит
Метод сжатия : С потерями
Размер потока : 289 Мбайт (14%)
Выравнивание : Разделение по промежуткам
Продолжительность промежутка : 42 мс. (1,00 видеокадр)
Время предзагрузки промежутка : 500 мс.

Аудио #2
Идентификатор : 2
Формат : AC-3
Формат/Информация : Audio Coding 3
Расширение режима : CM (complete main)
Идентификатор кодека : 2000
Продолжительность : 1 ч. 45 м.
Вид битрейта : Постоянный
Битрейт : 384 Кбит/сек
Каналы : 6 каналов
Расположение каналов : Front: L C R, Side: L R, LFE
Частота : 48,0 КГц
Битовая глубина : 16 бит
Метод сжатия : С потерями
Размер потока : 289 Мбайт (14%)
Выравнивание : Разделение по промежуткам
Продолжительность промежутка : 42 мс. (1,00 видеокадр)
Время предзагрузки промежутка : 500 мс.
Семпл: http://multi-up.com/834657

Релиз группы:

picpicpicpic
Для увеличения картинки щелкните мышкой по превью

Этот торрент недоступен для скачивания без регистрации, однако доступен по публичной magnet-ссылке (источники с публичных трекеров). Перед использованием ссылки прочтите, пожалуйста Пользовательское соглашение, а также как можно дольше оставайтесь на раздаче! Для того, чтобы скачать сам торрент-файл (который видит больше источников), а также для того, чтобы поблагодарить релизера, вам необходимо зарегистрироваться. Если регистрироваться лень - вы можете также попробовать скачать релиз по нашим партнерским ссылкам ниже.

[underverse.su].t24453.torrent
Трекер: Зарегистрирован   [ 23.02.2013 10:33 ]  

Статус: проверено (by Чертёнок at 23.02.2013 16:07)
Поблагодарили: 2 человека
Тип торрента: публичный - доступные источники с открытых трекеров: 
Размер: 2,05 GB (занимает 0,47 DVDR, для записи нужно 1 болванка DVDR/RW)
 
 
Похожие темы
Форум Тема Автор Торрент Отв. Посл. сооб.
Зарубежное кино [DVDRip, Low-Res HDRip, и т.д.] В доме / Dans La Maison (Франсуа Озон / Francois Ozon) [2012 г., триллер, детектив, BDRip-AVC] Dub + Original 90ytr90
1 | 0

0 | 1181

17

24.07.2013 16:21


Яндекс.Метрика powered by Sphinx


В Н И М А Н И Е
Сайт не распространяет и не хранит электронные версии произведений, а лишь бесплатно и без коммерческой выгоды (не требуя взамен платы,
SMS и т.д.) предоставляет доступ к создаваемому пользователями каталогу ссылок на торрент-файлы, которые содержат только списки хеш-сумм.
Убедительная просьба с жалобами обращаться напрямую к пользователю, разместившему торрент файл.

Вверх