Loading...
Error

Экипаж / Flight (Роберт Земекис) [2012 г., драма, BDRip] Dub(Rus,Ukr) + DVO + Original + Sub(Rus,Eng) HQ Underverse

Статистика раздачи
Размер:  2,17 GB   |    Зарегистрирован:  3 года 9 месяцев   |    Скачан:  92 раза

Полного источника не было: 1 месяц 19 дней

Сидов:  0  |  0 KB/s  ]   Личеров:  0  |  0 KB/s  ]

* - сиды/пиры с внешних источников

   
 
Автор Сообщение

HQ Underverse 

23-Фев-2013 06:33

Экипаж / Flight


Год выпуска: 2012
Жанр: драма
Страна: США
Режиссер: Роберт Земекис
В ролях: Дензел Вашингтон, Келли Райлли, Брюс Гринвуд, Дон Чидл, Джон Гудмен, Тамара Тюни, Брайан Джерати, Мелисса Лео, Надин Веласкес, Майкл Бисли
Сюжет фильма:
Опытный пилот Уип Вайтекер чудом избегает крушения самолета, и, совершив аварийную посадку, сохраняет жизни практически всех пассажиров. Уипа чествуют, как героя, но чем больше появляется подробностей о катастрофе, тем больше вопросов возникает: что же на самом деле произошло на борту самолёта…

  • Мировая премьера: 14 октября 2012
  • Российская премьера: 15 ноября 2012, «Централ Партнершип»

/
Качество видео: BDRip

Продолжительность: 02:18:35
Формат: avi
Видео: XviD, 720x304, 1782 kbps
Аудио #1: русский, дублированный [лицензия], AC3 5.1, 448 kbps
Аудио #2: русский, двухголосый закадровый [профессиональный, Омикрон], AC3 5.1, 448 kbps (отдельным файлом)
Аудио #3: украинский, дублированный [лицензия], AC3 5.1, 448 kbps (отдельным файлом)
Аудио #4: английский, оригинал, AC3 5.1, 448 kbps (отдельным файлом)
Субтитры #1: внешние, SRT, русский
Субтитры #2: внешние, SRT, английский

Код:

General
Complete name                    : D:\Video\Movies\Releases\Flight.2012.BDRip.XviD.AC3.Rus.D.HQ.Underverse.avi
Format                           : AVI
Format/Info                      : Audio Video Interleave
Format profile                   : OpenDML
File size                        : 2.17 GiB
Duration                         : 2h 18mn
Overall bit rate                 : 2 243 Kbps
Writing application              : VirtualDubMod 1.5.10.2 (build 2540/release)
Writing library                  : VirtualDubMod build 2540/release

Video
ID                               : 0
Format                           : MPEG-4 Visual
Format profile                   : Streaming Video@L1
Format settings, BVOP            : Yes
Format settings, QPel            : No
Format settings, GMC             : No warppoints
Format settings, Matrix          : Custom
Muxing mode                      : Packed bitstream
Codec ID                         : XVID
Codec ID/Hint                    : XviD
Duration                         : 2h 18mn
Bit rate                         : 1 783 Kbps
Width                            : 720 pixels
Height                           : 304 pixels
Display aspect ratio             : 2.35
Frame rate                       : 23.976 fps
Resolution                       : 24 bits
Colorimetry                      : 4:2:0
Scan type                        : Progressive
Bits/(Pixel*Frame)               : 0.340
Stream size                      : 1.73 GiB (79%)
Writing library                  : XviD 64

Audio
ID                               : 1
Format                           : AC-3
Format/Info                      : Audio Coding 3
Codec ID                         : 2000
Duration                         : 2h 18mn
Bit rate mode                    : Constant
Bit rate                         : 448 Kbps
Channel(s)                       : 6 channels
Channel positions                : Front: L C R, Surround: L R, LFE
Sampling rate                    : 48.0 KHz
Stream size                      : 444 MiB (20%)
Alignment                        : Split accross interleaves
Interleave, duration             : 42 ms (1.00 video frame)
Interleave, preload duration     : 500 ms
Title                            : Flight.2012.Rus.Dub.AC3.5.1.448.kbps.HQ.Underverse.ac3

General
Complete name                    : D:\Video\Movies\Releases\Flight.2012.BDRip.XviD.AC3.Rus.D.HQ.Underverse.Eng.ac3
Format                           : AC-3
Format/Info                      : Audio Coding 3
File size                        : 444 MiB
Duration                         : 2h 18mn
Overall bit rate                 : 448 Kbps

Audio
Format                           : AC-3
Format/Info                      : Audio Coding 3
Duration                         : 2h 18mn
Bit rate mode                    : Constant
Bit rate                         : 448 Kbps
Channel(s)                       : 6 channels
Channel positions                : Front: L C R, Surround: L R, LFE
Sampling rate                    : 48.0 KHz
Stream size                      : 444 MiB (100%)

General
Complete name                    : D:\Video\Movies\Releases\Flight.2012.BDRip.XviD.AC3.Rus.D.HQ.Underverse.Rus.DVO.ac3
Format                           : AC-3
Format/Info                      : Audio Coding 3
File size                        : 444 MiB
Duration                         : 2h 18mn
Overall bit rate                 : 448 Kbps

Audio
Format                           : AC-3
Format/Info                      : Audio Coding 3
Duration                         : 2h 18mn
Bit rate mode                    : Constant
Bit rate                         : 448 Kbps
Channel(s)                       : 6 channels
Channel positions                : Front: L C R, Surround: L R, LFE
Sampling rate                    : 48.0 KHz
Stream size                      : 444 MiB (100%)

General
Complete name                    : D:\Video\Movies\Releases\Flight.2012.BDRip.XviD.AC3.Rus.D.HQ.Underverse.Ukr.ac3
Format                           : AC-3
Format/Info                      : Audio Coding 3
File size                        : 444 MiB
Duration                         : 2h 18mn
Overall bit rate                 : 448 Kbps

Audio
Format                           : AC-3
Format/Info                      : Audio Coding 3
Duration                         : 2h 18mn
Bit rate mode                    : Constant
Bit rate                         : 448 Kbps
Channel(s)                       : 6 channels
Channel positions                : Front: L C R, Surround: L R, LFE
Sampling rate                    : 48.0 KHz
Stream size                      : 444 MiB (100%)

Семпл: http://multi-up.com/834778

Релиз группы:

picpicpic
Для увеличения картинки щелкните мышкой по превью

Этот торрент недоступен для скачивания без регистрации, однако доступен по публичной magnet-ссылке (источники с публичных трекеров). Перед использованием ссылки прочтите, пожалуйста Пользовательское соглашение, а также как можно дольше оставайтесь на раздаче! Для того, чтобы скачать сам торрент-файл (который видит больше источников), а также для того, чтобы поблагодарить релизера, вам необходимо зарегистрироваться. Если регистрироваться лень - вы можете также попробовать скачать релиз по нашим партнерским ссылкам ниже.

[underverse.su].t24448.torrent
Трекер: Зарегистрирован   [ 23.02.2013 06:33 ]  

Статус: проверено (by garry at 23.02.2013 07:09)
Поблагодарили: 5 человек
Тип торрента: публичный - доступные источники с открытых трекеров: 
Размер: 2,17 GB (занимает 1/2 DVDR, для записи нужно 1 болванка DVDR/RW)
 
 
Похожие темы
Форум Тема Автор Торрент Отв. Посл. сооб.
Зарубежное кино [DVDRip, Low-Res HDRip, и т.д.] Экипаж / Flight (Роберт Земекис) [2012 г., Драма, HDRip] VO (lord666) 90ytr90
1 | 5

0 | 1533

79

24.01.2013 17:46

Зарубежное кино [DVDRip, Low-Res HDRip, и т.д.] Экипаж / Fligh ( Роберт Земекис) [2012 г., Драма, BDRip-AVC] AVO (Дасевич) + Original Чертёнок
0 | 0

12 | 1285

49

22.02.2013 07:24

Зарубежное кино [DVDRip, Low-Res HDRip, и т.д.] Экипаж / Flight (Роберт Земекис) [2012 г., драма, HDRip] Dub 90ytr90
0 | 0

1 | 1429

90

21.03.2013 15:20

Зарубежное кино [DVDRip, Low-Res HDRip, и т.д.] Экипаж / Flight (Роберт Земекис) [2012 г., драма, BDRip-AVC] Dub + Eng 90ytr90
0 | 0

0 | 431

9

21.02.2013 14:26

Зарубежное кино [DVDRip, Low-Res HDRip, и т.д.] Экипаж / Flight (Роберт Земекис) [2012 г., драма, BDRip] Dub 90ytr90
5 | 0

0 | 544

50

21.02.2013 14:36


Яндекс.Метрика powered by Sphinx


В Н И М А Н И Е
Сайт не распространяет и не хранит электронные версии произведений, а лишь бесплатно и без коммерческой выгоды (не требуя взамен платы,
SMS и т.д.) предоставляет доступ к создаваемому пользователями каталогу ссылок на торрент-файлы, которые содержат только списки хеш-сумм.
Убедительная просьба с жалобами обращаться напрямую к пользователю, разместившему торрент файл.

Вверх