Loading...
Error

Новенькая / New Girl / Сезон 2 / Серии 1-25 (25) (Джейк Кэздан) [2012 г., Комедия, WEBDLRip] DVO (Ozz)

Статистика раздачи
Размер:  5,15 GB   |    Зарегистрирован:  3 года 6 месяцев   |    Скачан:  8 раз

Полного источника не было: 2 месяца 22 дня

Сидов:  0  |  0 KB/s  ]   Личеров:  0  |  0 KB/s  ]

* - сиды/пиры с внешних источников

   
 
Автор Сообщение

Jimmy Пол:Муж

21-Фев-2013 18:34

Новенькая / New Girl

Год выпуска: 2012
Жанр: Комедия
Страна: США
Режиссер: Джейк Кэздан
В ролях: Зои Дешанель, Дэймон Уайанс мл., Джэйк М. Джонсон, Джиллиан Вигмэн, Ханна Симона, Макс Гринфилд, Мэри Элизабет Эллис, Стив Баннос, Хейли Норман, Джек Янг и др.
Сюжет фильма:
Комедия о сексуальных отношениях мужчин и женщин. В центре сюжета — Джесс, оптимистичная, но несчастная в любви учительница начальной школы, которая после последнего разрыва въезжает в квартиру, где уже живут три парня.

Качество видео: WEBDLRip

Продолжительность: 00:22:06
Формат: avi
Видео: XviD, 656x368, 1062 kbps
Аудио #1: русский, двухголосый закадровый [ ], MP3 2.0, 128 kbps
Аудио #2: английский, оригинал, MP3 2.0, 128 kbps

Код:

General
Complete name                    : F:\Видео\Сериалы\Новенькая (Сезон 2) Ozz\New.Girl.S02E01.WEB-DLRip.Ozz.avi
Format                           : AVI
Format/Info                      : Audio Video Interleave
File size                        : 211 MiB
Duration                         : 22mn 6s
Overall bit rate                 : 1 333 Kbps
Writing application              : VirtualDubMod 1.5.10.2 (build 2540/release)
Writing library                  : VirtualDubMod build 2540/release

Video
ID                               : 0
Format                           : MPEG-4 Visual
Format profile                   : Streaming Video@L1
Format settings, BVOP            : Yes
Format settings, QPel            : No
Format settings, GMC             : No warppoints
Format settings, Matrix          : Default (MPEG)
Codec ID                         : XVID
Codec ID/Hint                    : XviD
Duration                         : 22mn 6s
Bit rate                         : 1 063 Kbps
Width                            : 656 pixels
Height                           : 368 pixels
Display aspect ratio             : 16/9
Frame rate                       : 23.976 fps
Resolution                       : 24 bits
Colorimetry                      : 4:2:0
Scan type                        : Progressive
Bits/(Pixel*Frame)               : 0.184
Stream size                      : 168 MiB (80%)
Writing library                  : XviD 63

Audio #1
ID                               : 1
Format                           : MPEG Audio
Format version                   : Version 1
Format profile                   : Layer 3
Codec ID                         : 55
Codec ID/Hint                    : MP3
Duration                         : 22mn 6s
Bit rate mode                    : Constant
Bit rate                         : 128 Kbps
Channel(s)                       : 2 channels
Sampling rate                    : 48.0 KHz
Resolution                       : 16 bits
Stream size                      : 20.2 MiB (10%)
Alignment                        : Aligned on interleaves
Interleave, duration             : 42 ms (1.00 video frame)
Interleave, preload duration     : 504 ms
Writing library                  : LAME3.98r
Encoding settings                : -m j -V 4 -q 0 -lowpass 17 -b 128

Audio #2
ID                               : 2
Format                           : MPEG Audio
Format version                   : Version 1
Format profile                   : Layer 3
Codec ID                         : 55
Codec ID/Hint                    : MP3
Duration                         : 22mn 6s
Bit rate mode                    : Constant
Bit rate                         : 128 Kbps
Channel(s)                       : 2 channels
Sampling rate                    : 48.0 KHz
Resolution                       : 16 bits
Stream size                      : 20.2 MiB (10%)
Alignment                        : Aligned on interleaves
Interleave, duration             : 42 ms (1.00 video frame)
Interleave, preload duration     : 504 ms
Writing library                  : LAME3.98r
Encoding settings                : -m j -V 4 -q 0 -lowpass 17 -b 128

Семпл: http://sendfile.su/683214

picpicpic
Для увеличения картинки щелкните мышкой по превью

Этот торрент недоступен для скачивания без регистрации, однако доступен по публичной magnet-ссылке (источники с публичных трекеров). Перед использованием ссылки прочтите, пожалуйста Пользовательское соглашение, а также как можно дольше оставайтесь на раздаче! Для того, чтобы скачать сам торрент-файл (который видит больше источников), а также для того, чтобы поблагодарить релизера, вам необходимо зарегистрироваться. Если регистрироваться лень - вы можете также попробовать скачать релиз по нашим партнерским ссылкам ниже.

[underverse.su].t24401.torrent
Трекер: Зарегистрирован   [ 21.05.2013 07:16 ]  

Статус: проверено (by Jimmy at 21.05.2013 07:17)
Поблагодарили: 3 человека
Тип торрента: публичный - доступные источники с открытых трекеров: 
Размер: 5,15 GB (занимает 1,18 DVDR, для записи нужно 2 болванки DVDR/RW)
 
 
Похожие темы
Форум Тема Автор Торрент Отв. Посл. сооб.
Зарубежные сериалы Новенькая / New Girl / Сезон 1 / Серии 1-24 (24) (Джейк Кэздан) [2011 г., комедия, WEBDLRip] DVO (Ozz) Jimmy
44 | 24

0 | 1007

18

21.02.2013 18:45

Зарубежные сериалы [BD / Remux / BDRip / WEB-DL / HDTV 1080/720р] Новенькая / New Girl / Сезон: 3 / Серии: 1-18 (24) (Джейк Кэздан) [2013, Комедия, WEB-DL 720p] DVO (Ozz) + Original + Subs (Rus, Eng) Jimmy
14 | 11

1 | 2727

2

10.04.2014 17:34



Последний раз редактировалось: Jimmy (21.05.2013 07:16), всего редактировалось 6 раз(а)

Jimmy Пол:Муж

02-Мар-2013 18:59

Добавлена 17 серия!

Jimmy Пол:Муж

09-Мар-2013 17:55

Добавлена 18 серия!

Jimmy Пол:Муж

28-Мар-2013 17:31

Добавлена 19 серия!

Jimmy Пол:Муж

16-Апр-2013 16:11

Добавлены 20-22 серии!

Jimmy Пол:Муж

21-Май-2013 07:17

Добавлены 23-25 серии! Теперь можете наслаждаться полным сезоном! :)

Яндекс.Метрика powered by Sphinx


В Н И М А Н И Е
Сайт не распространяет и не хранит электронные версии произведений, а лишь бесплатно и без коммерческой выгоды (не требуя взамен платы,
SMS и т.д.) предоставляет доступ к создаваемому пользователями каталогу ссылок на торрент-файлы, которые содержат только списки хеш-сумм.
Убедительная просьба с жалобами обращаться напрямую к пользователю, разместившему торрент файл.

Вверх