Loading...
Error

Глубокое синее море / Deep Blue Sea (Ренни Харлин) [1999 г., фантастика, боевик, триллер, BDRip] Dub + DVO HQ Underverse

Статистика раздачи
Размер:  2,18 GB   |    Зарегистрирован:  3 года 9 месяцев   |    Скачан:  11 раз

Полного источника не было: 1 месяц 7 дней

Сидов:  0  |  0 KB/s  ]   Личеров:  0  |  0 KB/s  ]

* - сиды/пиры с внешних источников

   
 
Автор Сообщение

HQ Underverse 

19-Фев-2013 05:30

Глубокое синее море / Deep Blue Sea


Год выпуска: 1999
Жанр: фантастика, боевик, триллер
Страна: США , Австралия
Режиссер: Ренни Харлин
В ролях: Томас Джейн, Саффрон Берроуз, LL Кул Джей, Майкл Рапапорт, Стеллан Скарсгард, Сэмюэл Л. Джексон, Жаклин МакКензи, Аида Туртурро, Кристос, Дэниэл Рей
Сюжет фильма:
Ученые подводной лаборатории «Акватика», разрабатывая препарат от болезни Альцгеймера, находят способ генетического увеличения мозга подопытных акул.

Агрессивные и злобные хищники превращаются в думающих монстров-убийц, способных перехитрить своих создателей. Герои фильма пытаются справиться с разъяренными хищниками. Но спастись от острых челюстей огромных и умных акул практически невозможно…

  • Мировая премьера: 26 июля 1999
  • Российская премьера: 31 марта 2000

/
Качество видео: BDRip

Продолжительность: 01:45:00
Формат: avi
Видео: XviD, 720x304, 2053 kbps
Аудио #1: русский, дублированный [R5], AC3 5.1, 448 kbps
Аудио #2: украинский, двухголосый закадровый [профессиональный, 1+1], AC3 5.1, 448 kbps
Аудио #3: английский, оригинал, AC3 5.1, 448 kbps (отдельно)
Субтитры #1: внешние, SRT, русский
Субтитры #2: внешние, SRT, английский

Код:

General
Complete name                    : D:\Video\Movies\Releases\Deep.Blue.Sea.1999.BDRip.XviD.AC3.Rus.D.Ukr.DVO.HQ.Underverse.avi
Format                           : AVI
Format/Info                      : Audio Video Interleave
Format profile                   : OpenDML
File size                        : 2.18 GiB
Duration                         : 1h 45mn
Overall bit rate                 : 2 967 Kbps
Writing application              : VirtualDubMod 1.5.10.2 (build 2540/release)
Writing library                  : VirtualDubMod build 2540/release

Video
ID                               : 0
Format                           : MPEG-4 Visual
Format profile                   : Streaming Video@L1
Format settings, BVOP            : Yes
Format settings, QPel            : No
Format settings, GMC             : No warppoints
Format settings, Matrix          : Custom
Muxing mode                      : Packed bitstream
Codec ID                         : XVID
Codec ID/Hint                    : XviD
Duration                         : 1h 45mn
Bit rate                         : 2 053 Kbps
Width                            : 720 pixels
Height                           : 304 pixels
Display aspect ratio             : 2.35
Frame rate                       : 23.976 fps
Resolution                       : 24 bits
Colorimetry                      : 4:2:0
Scan type                        : Progressive
Bits/(Pixel*Frame)               : 0.391
Stream size                      : 1.51 GiB (69%)
Writing library                  : XviD 64

Audio #1
ID                               : 1
Format                           : AC-3
Format/Info                      : Audio Coding 3
Codec ID                         : 2000
Duration                         : 1h 45mn
Bit rate mode                    : Constant
Bit rate                         : 448 Kbps
Channel(s)                       : 6 channels
Channel positions                : Front: L C R, Surround: L R, LFE
Sampling rate                    : 48.0 KHz
Stream size                      : 336 MiB (15%)
Alignment                        : Split accross interleaves
Interleave, duration             : 42 ms (1.00 video frame)
Interleave, preload duration     : 500 ms
Title                            : Deep.Blue.Sea.1999.Rus.Dub.AC3.5.1.448.kbps.HQ.Underverse.ac3

Audio #2
ID                               : 2
Format                           : AC-3
Format/Info                      : Audio Coding 3
Codec ID                         : 2000
Duration                         : 1h 45mn
Bit rate mode                    : Constant
Bit rate                         : 448 Kbps
Channel(s)                       : 6 channels
Channel positions                : Front: L C R, Surround: L R, LFE
Sampling rate                    : 48.0 KHz
Stream size                      : 336 MiB (15%)
Alignment                        : Split accross interleaves
Interleave, duration             : 42 ms (1.00 video frame)
Interleave, preload duration     : 500 ms
Title                            : Deep.Blue.Sea.1999.Ukr.DVO.AC3.5.1.448.kbps.HQ.Underverse.ac3

Семпл: http://multi-up.com/833010

Релиз группы:

picpicpic
Для увеличения картинки щелкните мышкой по превью

Этот торрент недоступен для скачивания без регистрации, однако доступен по публичной magnet-ссылке (источники с публичных трекеров). Перед использованием ссылки прочтите, пожалуйста Пользовательское соглашение, а также как можно дольше оставайтесь на раздаче! Для того, чтобы скачать сам торрент-файл (который видит больше источников), а также для того, чтобы поблагодарить релизера, вам необходимо зарегистрироваться. Если регистрироваться лень - вы можете также попробовать скачать релиз по нашим партнерским ссылкам ниже.

[underverse.su].t24327.torrent
Трекер: Зарегистрирован   [ 19.02.2013 05:30 ]  

Статус: проверено (by Паукан at 19.02.2013 10:32)
Поблагодарили: 1 человек
Тип торрента: публичный - доступные источники с открытых трекеров: 
Размер: 2,18 GB (занимает 1/2 DVDR, для записи нужно 1 болванка DVDR/RW)
 
 
Похожие темы
Форум Тема Автор Торрент Отв. Посл. сооб.
Зарубежное кино [DVDRip, Low-Res HDRip, и т.д.] Глубокое синее море / The Deep Blue Sea (Теренс Дэвис) [2011 г., драма, мелодрама, HDRip] RG NewCinema
0 | 0

1 | 551

10

04.06.2012 12:09


Яндекс.Метрика powered by Sphinx


В Н И М А Н И Е
Сайт не распространяет и не хранит электронные версии произведений, а лишь бесплатно и без коммерческой выгоды (не требуя взамен платы,
SMS и т.д.) предоставляет доступ к создаваемому пользователями каталогу ссылок на торрент-файлы, которые содержат только списки хеш-сумм.
Убедительная просьба с жалобами обращаться напрямую к пользователю, разместившему торрент файл.

Вверх