Loading...
Error

Перейти черту / Across the Line: The Exodus of Charlie Wright (Р. Эллис Фрэзиер) [2010 г., драма, криминал, BDRip-AVC] DVO + Original

Статистика раздачи
Размер:  2,18 GB   |    Зарегистрирован:  3 года 9 месяцев   |    Скачан:  11 раз

Полного источника не было: 2 часа 19 минут

Сидов:  0  |  0 KB/s  ]   Личеров:  0  |  0 KB/s  ]

* - сиды/пиры с внешних источников

   
 
Автор Сообщение

garry Пол:Муж

18-Фев-2013 22:16

Перейти черту / Across the Line: The Exodus of Charlie Wright


Год выпуска: 2010
Жанр: драма, криминал
Страна: США
Режиссер: Р. Эллис Фрэзиер
В ролях: Эйдан Куинн, Энди Гарсиа, Марио Ван Пиблз, Дэниэл Пино, Клаудиа Ферри, Люк Госс, Гэри Дэниелс, Джина Гершон, Букем Вудбайн, Джордан Бэлфи
Сюжет фильма:
Провернувший финансовую аферу на 2 миллиарда долларов делец пытался залечь на дно в Мексике, но на него и его деньги начинается настоящая охота. Погрязший в долгах местный наркоборон, русский гангстер и агент ФБР вступают на тропу войны, чтобы добыть деньги. Кто останется в живых в игре без правил, чтобы рассказать эту историю?

  • Мировая премьера: 7 декабря 2010


Качество видео: BDRip-AVC

Продолжительность: 01:34:21
Формат: MKV
Видео: x264, 1088x544, 2544 kbps
Аудио #1: русский, двухголосый закадровый [профессиональный], AC3 5.1, 384 kbps
Аудио #2: английский, оригинал, AC3 5.1, 384 kbps
Субтитры: тип: вшитые отключаемые, английский, формат: SRT

Код:

General
 Unique ID : 212442570772750521467804591907919175447 (0x9FD2F36AFF0FB5D194FA297009B91F17)
 Complete name : F:\FILMS\___ - R - ___\ACROSS THE LINE_The Exodus of Charlie Wright.mkv
 Format : Matroska
 Format version : Version 2
 File size : 2.18 GiB
 Duration : 1h 34mn
 Overall bit rate : 3 310 Kbps
 Encoded date : UTC 2013-02-16 09:40:33
 Writing application : mkvmerge v5.6.0 ('Kenya Kane') built on May 27 2012 16:44:04
 Writing library : libebml v1.2.3 + libmatroska v1.3.0

Video
 ID : 1
 Format : AVC
 Format/Info : Advanced Video Codec
 Format profile : High@L4.1
 Format settings, CABAC : Yes
 Format settings, ReFrames : 14 frames
 Codec ID : V_MPEG4/ISO/AVC
 Duration : 1h 34mn
 Bit rate : 2 544 Kbps
 Width : 1 088 pixels
 Height : 544 pixels
 Display aspect ratio : 2.000
 Frame rate mode : Constant
 Frame rate : 23.976 fps
 Color space : YUV
 Chroma subsampling : 4:2:0
 Bit depth : 8 bits
 Scan type : Progressive
 Bits/(Pixel*Frame) : 0.179
 Stream size : 1.63 GiB (75%)
 Title : AVC 1088x544@23.976 fps ~ 2544 kBit/s 2-pass high 4.1 0.179
 Writing library : x264 core 125 r2200bm 999b753
 Encoding settings : cabac=1 / ref=14 / deblock=1:-2:-2 / analyse=0x3:0x133 / me=umh / subme=10 / psy=1 / psy_rd=1.00:0.01 / mixed_ref=1 / me_range=32 / chroma_me=1 / trellis=2 / 8x8dct=1 / cqm=0 / deadzone=21,11 / fast_pskip=0 / chroma_qp_offset=-3 / threads=6 / lookahead_threads=1 / sliced_threads=0 / nr=0 / decimate=1 / interlaced=0 / bluray_compat=0 / constrained_intra=0 / bframes=12 / b_pyramid=2 / b_adapt=2 / b_bias=0 / direct=3 / weightb=1 / open_gop=0 / weightp=2 / keyint=250 / keyint_min=23 / scenecut=40 / intra_refresh=0 / rc=2pass / mbtree=0 / bitrate=2544 / ratetol=1.0 / qcomp=0.90 / qpmin=13 / qpmax=69 / qpstep=4 / cplxblur=20.0 / qblur=0.8 / ip_ratio=1.45 / pb_ratio=1.40 / aq=2:0.75
 Language : English
 Default : Yes
 Forced : No

Audio #1
 ID : 2
 Format : AC-3
 Format/Info : Audio Coding 3
 Mode extension : CM (complete main)
 Format settings, Endianness : Big
 Codec ID : A_AC3
 Duration : 1h 34mn
 Bit rate mode : Constant
 Bit rate : 384 Kbps
 Channel(s) : 6 channels
 Channel positions : Front: L C R, Side: L R, LFE
 Sampling rate : 48.0 KHz
 Bit depth : 16 bits
 Compression mode : Lossy
 Stream size : 259 MiB (12%)
 Title : DVO AC3 384 kBit/s 48 kHz 5.1 DD
 Language : Russian
 Default : Yes
 Forced : No

Audio #2
 ID : 3
 Format : AC-3
 Format/Info : Audio Coding 3
 Mode extension : CM (complete main)
 Format settings, Endianness : Big
 Codec ID : A_AC3
 Duration : 1h 34mn
 Bit rate mode : Constant
 Bit rate : 384 Kbps
 Channel(s) : 6 channels
 Channel positions : Front: L C R, Side: L R, LFE
 Sampling rate : 48.0 KHz
 Bit depth : 16 bits
 Compression mode : Lossy
 Stream size : 259 MiB (12%)
 Title : English AC3 384 kBit/s 48 kHz 5.1 DD
 Language : English
 Default : No
 Forced : No

Text
 ID : 4
 Format : UTF-8
 Codec ID : S_TEXT/UTF8
 Codec ID/Info : UTF-8 Plain Text
 Language : English
 Default : No
 Forced : No
Семпл: http://multi-up.com/831966

Релиз группы:

picpicpic
Для увеличения картинки щелкните мышкой по превью

Этот торрент недоступен для скачивания без регистрации, однако доступен по публичной magnet-ссылке (источники с публичных трекеров). Перед использованием ссылки прочтите, пожалуйста Пользовательское соглашение, а также как можно дольше оставайтесь на раздаче! Для того, чтобы скачать сам торрент-файл (который видит больше источников), а также для того, чтобы поблагодарить релизера, вам необходимо зарегистрироваться. Если регистрироваться лень - вы можете также попробовать скачать релиз по нашим партнерским ссылкам ниже.

[underverse.su].t24323.torrent
Трекер: Зарегистрирован   [ 18.02.2013 22:16 ]  

Статус: проверено (by garry at 18.02.2013 22:16)
Поблагодарили: пока никто не поблагодарил...
Тип торрента: публичный - доступные источники с открытых трекеров: 
Размер: 2,18 GB (занимает 1/2 DVDR, для записи нужно 1 болванка DVDR/RW)
 
 

Яндекс.Метрика powered by Sphinx


В Н И М А Н И Е
Сайт не распространяет и не хранит электронные версии произведений, а лишь бесплатно и без коммерческой выгоды (не требуя взамен платы,
SMS и т.д.) предоставляет доступ к создаваемому пользователями каталогу ссылок на торрент-файлы, которые содержат только списки хеш-сумм.
Убедительная просьба с жалобами обращаться напрямую к пользователю, разместившему торрент файл.

Вверх