Loading...
Error

Жена офицера / Серии: 1-8(8) ( Сергей Басин) [2013, мелодрама, детектив, SATRip]

Статистика раздачи
Размер:  4,17 GB   |    Зарегистрирован:  3 года 9 месяцев   |    Скачан:  17 раз

Полного источника не было: 2 года

Сидов:  0  |  0 KB/s  ]   Личеров:  0  |  0 KB/s  ]

* - сиды/пиры с внешних источников

   
 
Автор Сообщение

nemos Пол:Муж

18-Фев-2013 20:22


Год выпуска: 2013
Жанр: мелодрама, детектив
Страна: Россия
Режиссер: Сергей Басин
В ролях: Валерия Ланская, Иван Стебунов, Ярослав Бойко, Эмилия СпивакВладимир Литвинов,
Молодая и амбициозная журналистка Лика отправляется в отдаленный гарнизон вслед за своим возлюбленным — призывником Денисом. Она решает написать разоблачительный материал о тотальном разложении армии и для этого устраивается в гарнизон продавщицей. Но жизнь в этом, на первый взгляд, тихом месте не обещает быть спокойной. Лике приходится включиться в опасные расследования, которые перевернут всю ее дальнейшую жизнь…


Качество видео: SatRip

Продолжительность: 00:43:12серия
Формат: AVI
Видео: DivX, 704x384, 1600 kbps
Аудио: русский, MP3 2.0, 128 kbps

Код:

E:\С underverse-3 Фильмы\Жена офицера\Жена офицера_08.avi
   General
      Complete name : E:\С underverse-3 Фильмы\Жена офицера\Жена офицера_08.avi
      Format : AVI
      Format/Info : Audio Video Interleave
      File size : 538 MiB
      Duration : 43mn 12s
      Overall bit rate : 1 740 Kbps
      Writing library : Boilsoft AVI tool build 30012/release
   Video #0
      ID : 0
      Format : MPEG-4 Visual
      Format profile : Simple@L3
      Format settings, BVOP : No
      Format settings, QPel : No
      Format settings, GMC : No warppoints
      Format settings, Matrix : Default (H.263)
      Codec ID : DX50
      Codec ID/Hint : DivX 5
      Duration : 43mn 12s
      Bit rate : 1 600 Kbps
      Width : 704 pixels
      Height : 384 pixels
      Display aspect ratio : 1.85:1
      Frame rate : 25.000 fps
      Color space : YUV
      Chroma subsampling : 4:2:0
      Bit depth : 8 bits
      Scan type : Progressive
      Compression mode : Lossy
      Bits/(Pixel*Frame) : 0.237
      Stream size : 494 MiB (92%)
      Writing library : XviD 1.2.1 (UTC 2008-12-04)
   Audio #1
      ID : 1
      Format : MPEG Audio
      Format version : Version 1
      Format profile : Layer 3
      Mode : Joint stereo
      Mode extension : MS Stereo
      Codec ID : 55
      Codec ID/Hint : MP3
      Duration : 43mn 12s
      Bit rate mode : Constant
      Bit rate : 128 Kbps
      Channel(s) : 2 channels
      Sampling rate : 48.0 KHz
      Compression mode : Lossy
      Stream size : 39.6 MiB (7%)
      Alignment : Aligned on interleaves
      Interleave, duration : 24 ms (0.60 video frame)
      Interleave, preload duration : 504 ms
      Writing library : LAME3.98.2
Семпл: http://multi-up.com/832908

picpicpicpicpicpicpicpicpicpicpicpicpicpic
Для увеличения картинки щелкните мышкой по превью

Сериал который был выложен и зарегистрирован более двух месяцев назад буду раздавать с 23.00ч до 06.00ч утра ( вина в этом немоя, а пользователей которые неподдерживают раздачу)

Этот торрент недоступен для скачивания без регистрации, однако доступен по публичной magnet-ссылке (источники с публичных трекеров). Перед использованием ссылки прочтите, пожалуйста Пользовательское соглашение, а также как можно дольше оставайтесь на раздаче! Для того, чтобы скачать сам торрент-файл (который видит больше источников), а также для того, чтобы поблагодарить релизера, вам необходимо зарегистрироваться. Если регистрироваться лень - вы можете также попробовать скачать релиз по нашим партнерским ссылкам ниже.

[underverse.su].t24398.torrent
Трекер: Зарегистрирован   [ 21.02.2013 16:40 ]  

Статус: проверено (by Jimmy at 21.02.2013 18:37)
Поблагодарили: 4 человека
Тип торрента: публичный - доступные источники с открытых трекеров: 
Размер: 4,17 GB (занимает 0,95 DVDR, для записи нужно 1 болванка DVDR/RW)
 
 
Похожие темы
Форум Тема Автор Торрент Отв. Посл. сооб.
xUSSR сериалы [BD / Remux / BDRip / WEB-DL / HDTV 1080/720р] Жена офицера / Серии 1-8 (8) (Сергей Басин) [2013 г., Мелодрама, детектив, HDTVRip 720p] Чертёнок
4 | 4

0 | 837

7

21.04.2013 14:54



Последний раз редактировалось: nemos (04.10.2013 07:12), всего редактировалось 2 раз(а)

nemos Пол:Муж

20-Фев-2013 15:37

Обновлена(6)

nemos Пол:Муж

21-Фев-2013 16:51

Обновлена и завершено (8 )

Яндекс.Метрика powered by Sphinx


В Н И М А Н И Е
Сайт не распространяет и не хранит электронные версии произведений, а лишь бесплатно и без коммерческой выгоды (не требуя взамен платы,
SMS и т.д.) предоставляет доступ к создаваемому пользователями каталогу ссылок на торрент-файлы, которые содержат только списки хеш-сумм.
Убедительная просьба с жалобами обращаться напрямую к пользователю, разместившему торрент файл.

Вверх