Loading...
Error

Гость (Игорь Копылов) [2013 г., Боевик, криминал, SATRip]

Статистика раздачи
Размер:  1,35 GB   |    Зарегистрирован:  4 года 7 месяцев   |    Скачан:  57 раз

Полного источника не было: 9 месяцев

Сидов:  0  |  0 KB/s  ]   Личеров:  0  |  0 KB/s  ]

* - сиды/пиры с внешних источников

   
 
Автор Сообщение

nemos Пол:Муж

18-Фев-2013 05:11


Год выпуска: 2013
Жанр: Боевик, криминал
Страна: Россия
Режиссер: Игорь Копылов
Сюжет фильма:
Сбежавшему из следственного изолятора рецидивисту Кольцову судьба неожиданно подбрасывает шанс. Случайный водитель, подвозивший Кольцова до вокзала, гибнет в перестрелке с полицией, спровоцированной опасным попутчиком. Перед этим водитель рассказывает ему о своей дочери Вере, которую он не видел с рождения и собирался навестить после двадцатипятилетней разлуки и смерти ее матери. Чтобы спрятаться от погони, уголовник приходит в дом Веры под видом ее отца. В руках Кольцова документы на имя Яковенко Константина Ивановича и его сумка. Гостю нужно продержаться в богатом доме Веры и ее супруга Сергея Громова всего день. И за этот день не выдать себя, не проколоться, не совершить ошибки. Но проведя с новыми родственниками день, Кольцов оказывается вовлеченным в проблемы этой семьи …
Качество видео: SatRip

Продолжительность: 01:30:00
Формат: AVI
Видео: DivX, 704x384, 2014 kbps
Аудио: русский, MP3 2.0, 128 kbps

Код:

E:\С underverse-3 Фильмы\Gost.2013.nnm.SATRip.avi
   General
      Complete name : E:\С underverse-3 Фильмы\Gost.2013.nnm.SATRip.avi
      Format : AVI
      Format/Info : Audio Video Interleave
      File size : 1.35 GiB
      Duration : 1h 30mn
      Overall bit rate : 2 152 Kbps
      Writing application : VirtualDubMod 1.5.10.2 (build 2540/release)
      Writing library : VirtualDub build 29808/release
   Video #0
      ID : 0
      Format : MPEG-4 Visual
      Format settings, BVOP : 1
      Format settings, QPel : No
      Format settings, GMC : No warppoints
      Format settings, Matrix : Default (H.263)
      Muxing mode : Packed bitstream
      Codec ID : DX50
      Codec ID/Hint : DivX 5
      Duration : 1h 30mn
      Bit rate : 2 014 Kbps
      Width : 704 pixels
      Height : 384 pixels
      Display aspect ratio : 1.85:1
      Frame rate : 25.000 fps
      Color space : YUV
      Chroma subsampling : 4:2:0
      Bit depth : 8 bits
      Scan type : Progressive
      Compression mode : Lossy
      Bits/(Pixel*Frame) : 0.298
      Stream size : 1.27 GiB (94%)
      Writing library : DivX 6.8.5 (UTC 2009-08-20)
   Audio #1
      ID : 1
      Format : MPEG Audio
      Format version : Version 1
      Format profile : Layer 3
      Mode : Joint stereo
      Mode extension : MS Stereo
      Codec ID : 55
      Codec ID/Hint : MP3
      Duration : 1h 30mn
      Bit rate mode : Constant
      Bit rate : 128 Kbps
      Channel(s) : 2 channels
      Sampling rate : 48.0 KHz
      Compression mode : Lossy
      Stream size : 82.5 MiB (6%)
      Alignment : Aligned on interleaves
      Interleave, duration : 40 ms (1.00 video frame)
      Interleave, preload duration : 504 ms
Семпл: http://multi-up.com/832582

picpicpicpicpicpicpicpicpicpicpicpicpicpicpic
Для увеличения картинки щелкните мышкой по превью

Фильм который был выложен и зарегистрирован более двух месяцев назад буду раздавать с 23.00ч до 06.00ч утра ( вина в этом немоя, а пользователей которые неподдерживают раздачу)

Этот торрент недоступен для скачивания без регистрации, однако доступен по публичной magnet-ссылке (источники с публичных трекеров). Перед использованием ссылки прочтите, пожалуйста Пользовательское соглашение, а также как можно дольше оставайтесь на раздаче! Для того, чтобы скачать сам торрент-файл (который видит больше источников), а также для того, чтобы поблагодарить релизера, вам необходимо зарегистрироваться. Если регистрироваться лень - вы можете также попробовать скачать релиз по нашим партнерским ссылкам ниже.

[underverse.su].t24306.torrent
Трекер: Зарегистрирован   [ 18.02.2013 05:11 ]  

Статус: проверено (by Паукан at 18.02.2013 13:02)
Поблагодарили: 4 человека
Тип торрента: публичный - доступные источники с открытых трекеров: 
Размер: 1,35 GB (занимает 0,31 DVDR, для записи нужно 1 болванка DVDR/RW)
 
 


Последний раз редактировалось: nemos (04.10.2013 07:13), всего редактировалось 1 раз

indhouse 

22-Фев-2013 18:51

Спасибо!

Яндекс.Метрика powered by Sphinx


В Н И М А Н И Е
Сайт не распространяет и не хранит электронные версии произведений, а лишь бесплатно и без коммерческой выгоды (не требуя взамен платы,
SMS и т.д.) предоставляет доступ к создаваемому пользователями каталогу ссылок на торрент-файлы, которые содержат только списки хеш-сумм.
Убедительная просьба с жалобами обращаться напрямую к пользователю, разместившему торрент файл.

Вверх